<?xml version="1.0" standalone="no"?>
<!DOCTYPE svg PUBLIC "-//W3C//DTD SVG 1.1//EN" "http://www.w3.org/Graphics/SVG/1.1/DTD/svg11.dtd" >
<svg xmlns="http://www.w3.org/2000/svg">
<metadata></metadata>
<defs>
<font id="apex-5-icon-font" horiz-adv-x="1024">
<font-face units-per-em="1024" ascent="960" descent="-64" />
<missing-glyph horiz-adv-x="1024" />
<glyph unicode="&#x20;" horiz-adv-x="0" d="" />
<glyph unicode="&#xe000;" glyph-name="icon-triangle-down-16" d="M192 704l320-512 320 512zM308 640h408l-204-328z" />
<glyph unicode="&#xe001;" glyph-name="icon-gear" d="M512 640c-106 0-192-86-192-192s86-192 192-192 192 86 192 192-86 192-192 192zM512 320c-70 0-128 58-128 128s58 128 128 128 128-58 128-128-58-128-128-128zM898 400c-14 12-26 32-26 48 0 14 12 36 26 48l76 62c26 20 34 56 18 84l-72 124c-12 20-34 32-56 32-8 0-16-2-24-6l-94-34c-8-2-16-4-24-4-12 0-22 2-30 6-12 8-26 28-28 46l-16 98c-4 32-32 56-64 56h-144c-32 0-60-24-62-56l-18-98c-2-18-16-38-28-46-8-4-18-6-30-6-8 0-16 0-24 4l-94 34c-8 4-16 6-24 6-22 0-44-12-56-32l-72-124c-16-28-8-64 18-82l76-64c14-12 26-32 26-48 0-14-12-36-26-48l-76-64c-26-18-34-54-18-82l72-124c12-20 34-32 56-32 8 0 16 2 24 6l94 34c8 2 16 4 24 4 12 0 22-2 30-6 12-8 26-28 28-46l16-98c4-32 32-56 64-56h144c32 0 60 24 62 56l18 98c2 18 16 38 28 46 8 4 18 6 30 6 8 0 16 0 24-4l94-34c8-4 16-6 24-6 22 0 44 12 56 32l72 124c16 28 8 64-18 82zM864 162v-2c-14 8-30 14-48 20l-48 18c-14 6-30 8-46 8s-40-2-62-14c-30-18-54-56-60-92l-16-100-144 2-16 100c-6 36-32 72-60 90-22 12-46 14-62 14s-32-2-46-8l-96-36-70 126 78 62c28 24 48 64 48 98s-20 74-48 98l-80 64 72 124v2c14-8 30-14 48-20l48-18c14-6 30-8 46-8s40 2 62 14c30 18 54 56 60 92l16 100h144v-2l16-100c6-36 32-72 60-90 22-12 46-14 62-14s32 2 46 8l96 36 70-126-78-62c-28-24-48-64-48-98s20-74 48-98l80-64z" />
<glyph unicode="&#xe002;" glyph-name="left-arrow" d="M256 448l384 256v-512z" />
<glyph unicode="&#xe003;" glyph-name="archive-box" d="M960 512c0 4 0 8-2 12l-46 224c-6 30-32 52-64 52h-80v48c0 26-22 48-48 48h-416c-26 0-48-22-48-48v-48h-80c-32 0-58-22-64-52l-46-224c-2-4-2-8-2-12v-448c0-36 28-64 64-64h768c36 0 64 28 64 64v448zM848 768c16 0 30-10 34-26l46-224c2-8-2-18-8-26s-14-12-26-12h-62v176c0 26-22 48-48 48h-16v64zM800 480h-576v176c0 8 8 16 16 16h544c8 0 16-8 16-16zM304 864h416c8 0 16-8 16-16v-144h-448v144c0 8 8 16 16 16zM142 742c4 16 18 26 34 26h80v-64h-16c-26 0-48-22-48-48v-176h-62c-12 0-20 4-26 12s-10 18-8 26zM896 32h-768c-18 0-32 14-32 32v394c10-6 22-10 34-10h764c12 0 24 4 34 10v-394c0-18-14-32-32-32zM624 384h-224c-26 0-48-22-48-48v-64c0-26 22-48 48-48h224c26 0 48 22 48 48v64c0 26-22 48-48 48zM640 272c0-8-8-16-16-16h-224c-8 0-16 8-16 16v64c0 8 8 16 16 16h224c8 0 16-8 16-16z" />
<glyph unicode="&#xe004;" glyph-name="icon-triangle-right-16" d="M256 768v-640l512 320zM320 652l328-204-328-204z" />
<glyph unicode="&#xe005;" glyph-name="icon-triangle-up-16" d="M512 704l-320-512h640zM512 584l204-328h-408z" />
<glyph unicode="&#xe006;" glyph-name="menu-bullet" d="M512 896c-248 0-448-200-448-448s200-448 448-448 448 200 448 448-200 448-448 448zM512 64c-212 0-384 172-384 384s172 384 384 384 384-172 384-384-172-384-384-384zM768 448c0-142-114-256-256-256s-256 114-256 256 114 256 256 256 256-114 256-256z" />
<glyph unicode="&#xe007;" glyph-name="irr-ws-col-validation" d="M384 192c-8 0-16 4-22 10l-192 192c-14 12-14 32 0 44 12 14 32 14 44 0l170-168 426 424c12 14 32 14 44 0 14-12 14-32 0-44l-448-448c-6-6-14-10-22-10z" />
<glyph unicode="&#xe008;" glyph-name="icon-show-all" d="M960 896h-896c-18 0-32-14-32-32s14-32 32-32h896c18 0 32 14 32 32s-14 32-32 32zM960 704h-896c-18 0-32-14-32-32s14-32 32-32h896c18 0 32 14 32 32s-14 32-32 32zM960 512h-896c-18 0-32-14-32-32s14-32 32-32h896c18 0 32 14 32 32s-14 32-32 32zM960 320h-896c-18 0-32-14-32-32s14-32 32-32h896c18 0 32 14 32 32s-14 32-32 32zM960 128h-896c-18 0-32-14-32-32s14-32 32-32h896c18 0 32 14 32 32s-14 32-32 32z" />
<glyph unicode="&#xe009;" glyph-name="icon-show-common" d="M960 704h-896c-18 0-32-14-32-32s14-32 32-32h896c18 0 32 14 32 32s-14 32-32 32zM960 512h-896c-18 0-32-14-32-32s14-32 32-32h896c18 0 32 14 32 32s-14 32-32 32zM960 320h-896c-18 0-32-14-32-32s14-32 32-32h896c18 0 32 14 32 32s-14 32-32 32z" />
<glyph unicode="&#xe00a;" glyph-name="icon-tree-item" d="M256 256h-128v384h128v64h-124c-34 0-68-34-68-68v-384c0-36 34-60 68-60h124zM448 704v-64h448v-384h-448v-64h452c36 0 60 24 60 60v384c0 34-24 68-60 68zM512 64h-128v768h128c18 0 32 14 32 32s-14 32-32 32h-320c-18 0-32-14-32-32s14-32 32-32h128v-768h-128c-18 0-32-14-32-32s14-32 32-32h320c18 0 32 14 32 32s-14 32-32 32z" />
<glyph unicode="&#xe00b;" glyph-name="button-hot" d="M736 576c70 0 128-58 128-128s-58-128-128-128h-480c-70 0-128 58-128 128s58 128 128 128h480zM736 608h-480c-90 0-160-70-160-160s70-160 160-160h480c90 0 160 70 160 160s-70 160-160 160zM496 688c-10 0-16 6-16 16v128c0 10 6 16 16 16s16-6 16-16v-128c0-10-6-16-16-16zM202 656c-4 0-10 4-14 10l-54 114c-2 10 0 20 6 24 8 2 16 0 24-8l54-114c2-10 0-16-6-22-4-4-8-4-10-4zM790 656h-6c-6 4-12 12-6 22l54 116c4 6 12 12 22 6 6-4 14-12 6-22l-54-116c-6-2-12-6-16-6zM496 48c-10 0-16 6-16 16v128c0 10 6 16 16 16s16-6 16-16v-128c0-10-6-16-16-16zM842 92c-6 0-14 4-16 10l-54 116c-4 10 0 16 6 22 6 4 16 0 22-6l54-116c4-10 0-16-6-22 0-4-4-4-6-4zM150 92h-6c-6 4-12 14-6 24l54 114c4 6 12 14 22 6 6-2 14-12 6-22l-54-114c-6-4-12-8-16-8z" />
<glyph unicode="&#xe00c;" glyph-name="icon-region" d="M896 832h-768c-36 0-64-28-64-64v-640c0-36 28-64 64-64h768c36 0 64 28 64 64v640c0 36-28 64-64 64zM896 128h-768v448h768zM128 640v128h768v-128z" />
<glyph unicode="&#xe00d;" glyph-name="file-o" d="M886 726l-224 224c-6 6-14 10-22 10h-480c-18 0-32-14-32-32v-960c0-18 14-32 32-32h704c18 0 32 14 32 32v736c0 8-4 16-10 22zM818 704h-178v178zM832 0h-640v896h384v-224c0-18 14-32 32-32h224z" />
<glyph unicode="&#xe00e;" glyph-name="button-normal" d="M736 576c70 0 128-58 128-128s-58-128-128-128h-480c-70 0-128 58-128 128s58 128 128 128h480zM736 608h-480c-90 0-160-70-160-160s70-160 160-160h480c90 0 160 70 160 160s-70 160-160 160z" />
<glyph unicode="&#xe00f;" glyph-name="icon-maximize" d="M576 896c-18 0-32-14-32-32s14-32 32-32h274l-264-266c-14-12-14-32 0-44 6-6 14-10 22-10s16 4 22 10l266 264v-274c0-18 14-32 32-32s32 14 32 32v384zM448 64h-274l264 266c14 12 14 32 0 44-12 14-32 14-44 0l-266-264v274c0 18-14 32-32 32s-32-14-32-32v-384h384c18 0 32 14 32 32s-14 32-32 32z" />
<glyph unicode="&#xe010;" glyph-name="times-circle" d="M512 960c-282 0-512-230-512-512s230-512 512-512 512 230 512 512-230 512-512 512zM718 334c12-12 18-28 18-46 0-36-28-64-64-64-18 0-34 6-46 18l-114 116-114-116c-12-10-28-18-46-18-34 0-64 30-64 64 0 18 8 34 18 46l116 114-116 114c-10 12-18 28-18 46 0 34 30 64 64 64 18 0 34-8 46-18l114-116 114 116c12 12 28 18 46 18 36 0 64-28 64-64 0-18-6-34-18-46l-116-114z" />
<glyph unicode="&#xe011;" glyph-name="link" d="M616 344c32 32 52 74 56 120 0 8-6 16-16 16-8 2-16-6-16-14-4-38-20-72-46-100-32-30-72-46-114-46s-82 16-114 46l-224 224c-30 32-46 72-46 114s16 82 46 114c32 30 72 46 114 46s82-16 114-46l170-172c6-6 16-6 22 0 8 6 8 16 0 22l-170 172c-36 36-84 56-136 56s-100-20-136-56-56-84-56-136 20-100 56-136l224-224c36-36 84-56 136-56s100 20 136 56zM904 328l-224 224c-36 36-84 56-136 56s-100-20-136-56c-32-32-52-74-56-120 0-8 6-16 16-16 8-2 16 6 16 14 4 38 20 72 46 100 32 30 72 46 114 46s82-16 114-46l224-224c30-32 46-72 46-114s-16-82-46-114c-32-30-72-46-114-46s-82 16-114 46l-170 172c-6 6-16 6-22 0-8-6-8-16 0-22l170-172c36-36 84-56 136-56s100 20 136 56 56 84 56 136-20 100-56 136z" />
<glyph unicode="&#xe012;" glyph-name="icon-top-chevron" d="M854 304l-342 342-342-342c-6-6-10-14-10-22s4-18 10-24c12-12 32-12 44 0l298 298 298-298c12-12 32-12 44 0 14 14 14 34 0 46z" />
<glyph unicode="&#xe013;" glyph-name="icon-shuttle-remove" d="M678 96c-8 0-16 4-22 10l-342 342 342 342c12 14 32 14 46 0 12-12 12-32 0-44l-298-298 298-298c12-12 12-32 0-44-8-6-16-10-24-10z" />
<glyph unicode="&#xe014;" glyph-name="home" d="M1014 472l-480 478c-12 12-32 12-44 0l-480-480c-14-12-14-32 0-44 6-6 14-10 22-10s16 4 22 10l74 72v-466c0-18 14-32 32-32h256c18 0 32 14 32 32v288h128v-288c0-18 14-32 32-32h256c18 0 32 14 32 32v466l72-72c14-12 34-12 46 0s12 32 0 46zM832 64h-192v288c0 8-4 16-10 22s-14 10-22 10h-192c-18 0-32-14-32-32v-288h-192v498l320 320 320-320z" />
<glyph unicode="&#xe015;" glyph-name="icon-bottom-chevron" d="M854 638c-12 12-32 12-44 0l-298-298-298 298c-12 12-32 12-44 0-6-8-10-16-10-24s4-16 10-22l342-342 342 342c14 12 14 32 0 46z" />
<glyph unicode="&#xe016;" glyph-name="icon-shuttle-move" d="M368 790c-12 14-32 14-46 0-12-12-12-32 0-44l298-298-298-298c-12-12-12-32 0-44 8-6 16-10 24-10s16 4 22 10l342 342z" />
<glyph unicode="&#xe017;" glyph-name="exclamation-triangle" d="M1006 194l-384 640c-22 38-64 62-110 62s-86-24-110-62l-384-640c-10-18-18-42-18-66 0-70 58-128 128-128h768c70 0 128 58 128 128 0 24-6 48-18 66zM512 128c-36 0-64 28-64 64s28 64 64 64 64-28 64-64-28-64-64-64zM576 384c0-36-28-64-64-64s-64 28-64 64v192c0 36 28 64 64 64s64-28 64-64z" />
<glyph unicode="&#xe018;" glyph-name="icon-item-native-auto-complete" d="M656 432c0-26-22-48-48-48s-48 22-48 48 22 48 48 48 48-22 48-48zM816 432c0-26-22-48-48-48s-48 22-48 48 22 48 48 48 48-22 48-48zM976 432c0-26-22-48-48-48s-48 22-48 48 22 48 48 48 48-22 48-48zM510 166l-222 576c-2 6-8 10-14 10s-12-4-14-10l-226-576c-4-8 0-18 8-20 8-4 18 0 20 8l92 230h238l90-230c2-6 8-10 14-10 2 0 4 0 6 2 8 2 12 12 8 20zM166 416l108 276 106-276z" />
<glyph unicode="&#xe019;" glyph-name="icon-user-24" d="M830 130c-2 22-20 42-40 48l-148 40c-4 2-10 8-12 14l-16 78v2c54 42 90 116 90 200 0 130-86 234-192 234s-192-104-192-234c0-84 36-158 90-200v-2l-16-78c-2-6-8-12-12-14l-148-40c-20-6-38-26-40-48l-20-118c0-12 8-24 18-26h4c10 0 20 8 20 18l20 120c0 4 6 10 10 12l146 40c20 6 38 26 44 46l14 68c18-8 40-12 62-12s44 4 62 12l14-68c4-20 24-40 44-46l146-40c4-2 10-8 10-12l20-120c0-10 10-18 20-18h4c10 2 18 14 18 26zM362 512c0 106 68 192 150 192s150-86 150-192-68-192-150-192-150 86-150 192z" />
<glyph unicode="&#xe01a;" glyph-name="icon-shuttle-up" d="M208 528c-12-12-12-32 0-44 12-14 34-14 46 0l194 194v-550c0-18 14-32 32-32 8 0 16 4 22 10s10 14 10 22v550l194-194c12-14 34-14 46 0 12 12 12 32 0 44l-272 272z" />
<glyph unicode="&#xe01b;" glyph-name="undo" d="M512 896c-110 0-212-40-292-110l-102 100c-8 10-22 12-34 8-12-6-20-18-20-30v-256c0-18 14-32 32-32h256c12 0 24 8 30 20 4 12 2 26-8 34l-110 110c68 58 156 92 248 92 212 0 384-172 384-384s-172-384-384-384c-178 0-332 122-374 296-4 16-20 28-38 24-16-4-28-22-24-40 48-202 228-344 436-344 246 0 448 200 448 448 0 246-202 448-448 448z" />
<glyph unicode="&#xe01c;" glyph-name="icon-item-native-checkbox" d="M640 768h320c8 0 16 8 16 16s-8 16-16 16h-320c-8 0-16-8-16-16s8-16 16-16zM960 672h-320c-8 0-16-8-16-16s8-16 16-16h320c8 0 16 8 16 16s-8 16-16 16zM960 256h-320c-8 0-16-8-16-16s8-16 16-16h320c8 0 16 8 16 16s-8 16-16 16zM960 128h-320c-8 0-16-8-16-16s8-16 16-16h320c8 0 16 8 16 16s-8 16-16 16zM384 384h-256c-36 0-64-28-64-64v-256c0-36 28-64 64-64h256c36 0 64 28 64 64v256c0 36-28 64-64 64zM384 32h-256c-18 0-32 14-32 32v256c0 18 14 32 32 32h256c18 0 32-14 32-32v-256c0-18-14-32-32-32zM436 844l-244-246-116 118c-6 6-18 6-24 0s-6-18 0-24l140-138 268 266c6 8 6 18 0 24s-18 6-24 0z" />
<glyph unicode="&#xe01d;" glyph-name="repeat" d="M940 894c-12 4-26 2-34-8l-102-100c-80 70-182 110-292 110-248 0-448-202-448-448 0-248 200-448 448-448 208 0 388 142 436 344 4 18-8 36-24 40-18 4-34-8-38-24-42-174-196-296-374-296-212 0-384 172-384 384s172 384 384 384c92 0 180-34 248-92l-110-110c-10-8-12-22-8-34 6-12 18-20 30-20h256c18 0 32 14 32 32v256c0 12-8 24-20 30z" />
<glyph unicode="&#xe01e;" glyph-name="refresh" d="M928 480c-18 0-32-14-32-32 0-212-172-384-384-384-108 0-208 46-280 122l78 80c10 8 12 22 8 34-6 12-18 20-30 20h-192c-18 0-32-14-32-32v-192c0-12 8-24 20-30 4-2 8-2 12-2 8 0 16 4 22 10l68 68c84-90 202-142 326-142 248 0 448 202 448 448 0 18-14 32-32 32zM96 416c18 0 32 14 32 32 0 212 172 384 384 384 108 0 208-46 280-122l-78-80c-10-8-12-22-8-34 6-12 18-20 30-20h192c18 0 32 14 32 32v192c0 12-8 24-20 30-12 4-26 2-34-8l-68-68c-84 90-202 142-326 142-246 0-448-202-448-448 0-18 14-32 32-32z" />
<glyph unicode="&#xe01f;" glyph-name="icon-expand-all" d="M512 704l-192-192h384zM512 192l192 192h-384zM64 832h896c18 0 32 14 32 32s-14 32-32 32h-896c-18 0-32-14-32-32s14-32 32-32zM960 64h-896c-18 0-32-14-32-32s14-32 32-32h896c18 0 32 14 32 32s-14 32-32 32z" />
<glyph unicode="&#xe020;" glyph-name="icon-collapse-app" d="M704 896h-384l192-192zM320 64h384l-192 192zM64 512h896c18 0 32 14 32 32s-14 32-32 32h-896c-18 0-32-14-32-32s14-32 32-32zM960 448h-896c-18 0-32-14-32-32s14-32 32-32h896c18 0 32 14 32 32s-14 32-32 32z" />
<glyph unicode="&#xe021;" glyph-name="icon-shuttle-bottom" d="M768 0h-576c-18 0-32 14-32 32s14 32 32 32h576c18 0 32-14 32-32s-14-32-32-32zM208 464c-12 12-12 32 0 44 12 14 34 14 46 0l194-194v550c0 18 14 32 32 32 8 0 16-4 22-10s10-14 10-22v-550l194 194c12 14 34 14 46 0 12-12 12-32 0-44l-272-272z" />
<glyph unicode="&#xe022;" glyph-name="icon-search" d="M982 22l-274 274c58 68 92 154 92 248 0 212-172 384-384 384s-384-172-384-384 172-384 384-384c94 0 180 34 248 92l274-274c6-6 14-10 22-10s16 4 22 10c14 12 14 32 0 44zM96 544c0 176 144 320 320 320s320-144 320-320-144-320-320-320-320 144-320 320z" />
<glyph unicode="&#xe023;" glyph-name="info-circle-o" d="M512 960c-282 0-512-230-512-512s230-512 512-512 512 230 512 512-230 512-512 512zM512 0c-248 0-448 200-448 448s200 448 448 448 448-200 448-448-200-448-448-448zM576 640c0-36-28-64-64-64s-64 28-64 64 28 64 64 64 64-28 64-64zM608 256h-48v224c-10 68-22 80-32 32h-112v-64h48v-192h-48v-64h192v64z" />
<glyph unicode="&#xe024;" glyph-name="user" d="M958 40l-18 70c-12 48-54 84-110 98l-96 20c-56 14-94 50-94 92v40c76 50 128 142 128 248 0 158-114 288-256 288s-256-130-256-288c0-106 52-198 128-248v-40c0-42-38-78-94-92l-96-20c-56-14-98-50-110-98l-18-70c-6-18 4-34 22-38 2-2 6-2 8-2 14 0 28 10 30 24l20 70c6 24 30 44 62 50l96 22c84 20 144 82 144 154v10c20-6 42-10 64-10s44 4 64 10v-10c0-72 60-134 144-154l96-22c32-6 56-26 62-50l18-70c4-14 18-24 32-24 2 0 6 0 8 2 18 4 28 20 22 38zM320 608c0 124 86 224 192 224s192-100 192-224-86-224-192-224-192 100-192 224z" />
<glyph unicode="&#xe025;" glyph-name="icon-minimize" d="M960 512c18 0 32 14 32 32s-14 32-32 32h-274l264 266c14 12 14 32 0 44-6 6-14 10-22 10s-16-4-22-10l-266-264v274c0 18-14 32-32 32s-32-14-32-32v-384zM64 320h274l-264-266c-14-12-14-32 0-44 12-14 32-14 44 0l266 264v-274c0-18 14-32 32-32s32 14 32 32v384h-384c-18 0-32-14-32-32s14-32 32-32z" />
<glyph unicode="&#xe026;" glyph-name="icon-shuttle-down" d="M208 368c-12 12-12 32 0 44 12 14 34 14 46 0l194-194v550c0 18 14 32 32 32 8 0 16-4 22-10s10-14 10-22v-550l194 194c12 14 34 14 46 0 12-12 12-32 0-44l-272-272z" />
<glyph unicode="&#xe027;" glyph-name="users" d="M670 142l-80 22c-46 12-78 50-78 92v40c76 50 128 142 128 248 0 158-114 288-256 288s-256-130-256-288c0-106 52-198 128-248v-40c0-42-32-80-76-92l-82-20c-50-14-86-52-98-98-4-18 8-34 26-38 2-2 4-2 6-2 14 0 28 10 32 26 4 24 24 42 50 50l82 20c72 20 124 84 124 154v10c20-6 42-10 64-10s44 4 64 10v-10c0-70 52-134 124-154l82-20c26-8 46-26 50-50 4-16 18-26 32-26 2 0 4 0 6 2 18 4 28 20 26 38-12 46-48 84-98 96zM192 544c0 124 86 224 192 224s192-100 192-224-86-224-192-224-192 100-192 224zM958 268l-80 22c-46 10-78 48-78 92v38c80 52 128 144 128 248 0 160-114 288-256 288-42 0-82-10-120-32-14-10-20-30-10-44 8-16 28-20 44-12 26 16 56 24 86 24 106 0 192-100 192-224 0-86-44-164-112-202-10-6-16-16-16-28v-56c0-72 52-136 124-154l82-22c2-2 6-2 8-2 14 0 28 10 32 24 4 18-6 36-24 40z" />
<glyph unicode="&#xe028;" glyph-name="icon-shuttle-move-all" d="M208 790c-12 14-32 14-46 0-12-12-12-32 0-44l298-298-298-298c-12-12-12-32 0-44 8-6 16-10 24-10s16 4 22 10l342 342zM528 790c-12 14-32 14-46 0-12-12-12-32 0-44l298-298-298-298c-12-12-12-32 0-44 8-6 16-10 24-10s16 4 22 10l342 342z" />
<glyph unicode="&#xe029;" glyph-name="icon-shuttle-remove-all" d="M564 448l298 298c12 12 12 32 0 44-14 14-34 14-46 0l-342-342 342-342c6-6 14-10 22-10s18 4 24 10c12 12 12 32 0 44zM244 448l298 298c12 12 12 32 0 44-14 14-34 14-46 0l-342-342 342-342c6-6 14-10 22-10s18 4 24 10c12 12 12 32 0 44z" />
<glyph unicode="&#xe02a;" glyph-name="item-native-color-picker" d="M320 400c-44 0-80 36-80 80s36 80 80 80 80-36 80-80-36-80-80-80zM320 528c-26 0-48-22-48-48s22-48 48-48 48 22 48 48-22 48-48 48zM704 432c0-26-22-48-48-48s-48 22-48 48 22 48 48 48 48-22 48-48zM800 560c0-26-22-48-48-48s-48 22-48 48 22 48 48 48 48-22 48-48zM704 688c0-26-22-48-48-48s-48 22-48 48 22 48 48 48 48-22 48-48zM544 720c0-26-22-48-48-48s-48 22-48 48 22 48 48 48 48-22 48-48zM524 832c186 0 340-128 340-282 0-118-92-218-204-218-56 0-74 16-96 32-24 16-42 32-90 32-32 0-58-18-80-34-30-22-54-42-106-42-70 0-128 64-128 140 0 206 164 372 364 372zM524 864c-216 0-396-182-396-404 0-96 74-172 164-172 60 0 96 26 124 48 22 16 38 28 60 28 36 0 52-12 72-24 22-20 50-40 114-40 132 0 238 112 238 250-4 174-170 314-376 314zM858 124c-4 4-96 68-186 68-60 0-86-32-92-64h-420c-10 0-16-6-16-16s6-16 16-16h420c6-32 32-64 92-64 38 0 60 16 86 32s48 32 90 32c6 0 12 4 16 10 0 10 0 16-6 18zM740 90c-20-14-40-26-68-26-42 0-64 16-64 48s22 48 64 48c48 0 96-22 128-38-26-6-44-20-60-32z" />
<glyph unicode="&#xe02b;" glyph-name="icon-irr-subscription" d="M896 768h-768c-36 0-64-28-64-64v-512c0-36 28-64 64-64h768c36 0 64 28 64 64v512c0 36-28 64-64 64zM512 362l-370 342h740zM334 442l-206-206v396zM380 400l110-102c12-12 32-12 44 0l110 102 208-208h-680zM690 442l206 190v-396z" />
<glyph unicode="&#xe02c;" glyph-name="icon-util-object-dependencies" d="M832 576c20 0 32-12 32-32v-448c0-20-12-32-32-32h-320c-20 0-32 12-32 32v448c0 20 12 32 32 32h320zM832 608h-320c-36 0-64-28-64-64v-448c0-36 28-64 64-64h320c36 0 64 28 64 64v448c0 36-28 64-64 64zM576 480h192v-32h-192zM576 384h192v-32h-192zM576 288h192v-32h-192zM576 192h192v-32h-192zM368 864c-150 0-272-42-272-96v-448c0-54 122-96 272-96h48v32h-48c-156 0-240 44-240 64v96c54-32 150-48 240-48 16 0 32 0 48 4v32h-48c-122 0-208 24-240 54v118c54-32 150-48 240-48 16 0 32 0 48 4v12c0 6 0 12 4 20-16 0-32-4-52-4-122 0-208 26-240 54v110c44-32 138-52 240-52s196 20 240 52v-84h32v128c0 54-122 96-272 96zM368 704c-156 0-240 44-240 64s84 64 240 64 240-44 240-64-84-64-240-64z" />
<glyph unicode="&#xe02d;" glyph-name="icon-item-native-display-image" d="M896 800h-768c-36 0-64-28-64-64v-576c0-36 28-64 64-64h768c36 0 64 28 64 64v576c0 36-28 64-64 64zM928 160c0-18-14-32-32-32h-634l424 426 242-242zM928 358l-242 240-470-470h-88c-18 0-32 14-32 32v576c0 18 14 32 32 32h768c18 0 32-14 32-32zM304 640c-62 0-112-50-112-112s50-112 112-112 112 50 112 112-50 112-112 112zM304 448c-44 0-80 36-80 80s36 80 80 80 80-36 80-80-36-80-80-80z" />
<glyph unicode="&#xe02e;" glyph-name="icon-item-native-display-only" d="M864 672h-384c-8 0-16-8-16-16s8-16 16-16h384c8 0 16 8 16 16s-8 16-16 16zM480 832h384c8 0 16 8 16 16s-8 16-16 16h-384c-8 0-16-8-16-16s8-16 16-16zM864 480h-704c-8 0-16-8-16-16s8-16 16-16h704c8 0 16 8 16 16s-8 16-16 16zM864 288h-704c-8 0-16-8-16-16s8-16 16-16h704c8 0 16 8 16 16s-8 16-16 16zM864 96h-704c-8 0-16-8-16-16s8-16 16-16h704c8 0 16 8 16 16s-8 16-16 16zM154 642c8-4 18 0 20 8l24 54h116l24-54c2-6 8-10 14-10 2 0 4 0 6 2 8 2 12 12 8 20l-96 224c-4 12-24 12-28 0l-96-224c-4-8 0-18 8-20zM256 840l44-104h-88z" />
<glyph unicode="&#xe02f;" glyph-name="unlock" d="M736 576h-352v128c0 106-86 192-192 192s-192-86-192-192v-160c0-18 14-32 32-32s32 14 32 32v160c0 70 58 128 128 128s128-58 128-128v-128h-32c-52 0-96-44-96-96v-384c0-52 44-96 96-96h448c52 0 96 44 96 96v384c0 52-44 96-96 96zM768 96c0-18-14-32-32-32h-448c-18 0-32 14-32 32v384c0 18 14 32 32 32h448c18 0 32-14 32-32z" />
<glyph unicode="&#xe030;" glyph-name="icon-pd-rendering" d="M896 832h-768c-36 0-64-28-64-64v-640c0-36 28-64 64-64h768c36 0 64 28 64 64v640c0 36-28 64-64 64zM128 128v448h192v-448zM896 128h-512v192h512zM896 384h-512v192h512zM384 640h-256v128h768v-128z" />
<glyph unicode="&#xe031;" glyph-name="icon-locked" d="M768 512h-64v128c0 106-86 192-192 192s-192-86-192-192v-128h-64c-36 0-64-28-64-64v-384c0-36 28-64 64-64h512c36 0 64 28 64 64v384c0 36-28 64-64 64zM384 640c0 70 58 128 128 128s128-58 128-128v-128h-256zM768 64h-512v384h512z" />
<glyph unicode="&#xe032;" glyph-name="icon-item-native-file" d="M896 704h-416c-18 0-32 14-32 32v32c0 36-28 64-64 64h-256c-36 0-64-28-64-64v-640c0-36 28-64 64-64h128c8 0 16 8 16 16s-8 16-16 16h-128c-18 0-32 14-32 32v640c0 18 14 32 32 32h256c18 0 32-14 32-32v-32c0-36 28-64 64-64h416c18 0 32-14 32-32v-512c0-18-14-32-32-32h-136c-32 0-62 14-82 36l-118 130c38 42 58 100 44 164-16 64-68 116-132 130-128 28-240-84-212-212 14-64 68-118 132-132 54-12 104 2 144 30l118-132c28-30 66-46 106-46h136c36 0 64 28 64 64v512c0 36-28 64-64 64zM288 384c0 80 64 144 144 144s144-64 144-144-64-144-144-144-144 64-144 144z" />
<glyph unicode="&#xe033;" glyph-name="action" d="M880 768h-200l-156 186c-6 8-18 8-24 0l-156-186h-200c-8 0-16-8-16-16v-800c0-8 8-16 16-16h736c8 0 16 8 16 16v800c0 8-8 16-16 16zM864-32h-704v768h192c4 0 10 2 12 6l148 178 148-178c2-4 8-6 12-6h192zM688 448h-352c-8 0-16-8-16-16s8-16 16-16h352c8 0 16 8 16 16s-8 16-16 16zM320 592c0-8 8-16 16-16h352c8 0 16 8 16 16s-8 16-16 16h-352c-8 0-16-8-16-16zM688 288h-352c-8 0-16-8-16-16s8-16 16-16h352c8 0 16 8 16 16s-8 16-16 16zM688 128h-352c-8 0-16-8-16-16s8-16 16-16h352c8 0 16 8 16 16s-8 16-16 16z" />
<glyph unicode="&#xe034;" glyph-name="icon-run" d="M512 960c-282 0-512-230-512-512s230-512 512-512 512 230 512 512-230 512-512 512zM512 0c-248 0-448 200-448 448s200 448 448 448 448-200 448-448-200-448-448-448zM320 192l448 256-448 256z" />
<glyph unicode="&#xe035;" glyph-name="lock-user" d="M970 76l-54 40c28 28 44 66 44 108 0 88-72 160-160 160s-160-72-160-160c0-42 16-80 44-108l-54-40c-34-26-54-66-54-108 0-18 14-32 32-32s32 14 32 32c0 22 10 44 28 56l70 52c18-8 40-12 62-12s44 4 62 12l70-52c18-12 28-34 28-56 0-18 14-32 32-32s32 14 32 32c0 42-20 82-54 108zM752 142h-2c-28 18-46 48-46 82 0 52 44 96 96 96s96-44 96-96c0-34-18-64-46-82h-2c-14-8-30-14-48-14s-34 6-48 14zM480 64h-256c-18 0-32 14-32 32v384c0 18 14 32 32 32h448c18 0 32-14 32-32s14-32 32-32 32 14 32 32c0 52-44 96-96 96h-32v128c0 106-86 192-192 192s-192-86-192-192v-128h-32c-52 0-96-44-96-96v-384c0-52 44-96 96-96h256c18 0 32 14 32 32s-14 32-32 32zM320 704c0 70 58 128 128 128s128-58 128-128v-128h-256z" />
<glyph unicode="&#xe036;" glyph-name="icon-comments" d="M512 932c-282 0-512-172-512-384 0-122 78-232 196-302l-26-246c-4-20 14-36 32-36 6 0 14 2 20 8l228 196c20-2 40-4 62-4 282 0 512 172 512 384s-230 384-512 384zM512 228c-18 0-36 0-56 2l-28 4-20-18-166-142 18 164 6 42-36 20c-106 62-166 152-166 248 0 176 200 320 448 320s448-144 448-320-200-320-448-320z" />
<glyph unicode="&#xe037;" glyph-name="icon-dev-themeroller" d="M960 960h-704c-36 0-64-28-64-64v-64h-96c-52 0-96-44-96-96v-192c0-52 44-96 96-96h448c18 0 32-14 32-32v-96c-36 0-64-28-64-64v-256c0-36 28-64 64-64h64c36 0 64 28 64 64v256c0 36-28 64-64 64v96c0 52-44 96-96 96h-448c-18 0-32 14-32 32v192c0 18 14 32 32 32h96v-64c0-36 28-64 64-64h704c36 0 64 28 64 64v192c0 36-28 64-64 64zM640 0h-64v256h64zM960 704h-704v192h704z" />
<glyph unicode="&#xe038;" glyph-name="item-native-list-manager" d="M908 176c-22 0-40 10-56 26l-184 182c-60-22-130-10-172 36-52 50-60 118-28 184l8 20 104-102 70 70-102 102 18 10c68 32 134 20 186-28 44-46 58-112 36-174l182-182c32-32 32-84 0-118-16-16-38-26-62-26zM678 420l198-200c20-18 52-18 72 0 18 20 18 52 0 72l-200 198 4 10c22 54 12 112-22 150-36 34-80 44-126 32l94-94-116-114-92 92c-16-48-4-90 32-124 34-36 96-46 150-22zM32 608h64v-64h-64zM160 576h224v-32h-224zM32 352h64v-64h-64zM160 320h224v-32h-224zM32 480h64v-64h-64zM160 448h224v-32h-224z" />
<glyph unicode="&#xe039;" glyph-name="icon-item-native-number-field" d="M896 704h-768c-36 0-64-28-64-64v-384c0-36 28-64 64-64h768c36 0 64 28 64 64v384c0 36-28 64-64 64zM896 224h-768c-18 0-32 14-32 32v384c0 18 14 32 32 32h768c18 0 32-14 32-32v-384c0-18-14-32-32-32zM412 538l68 28v-262c0-8 8-16 16-16s16 8 16 16v282c0 10-10 22-22 22-4 0-6 0-10-2l-86-40c-8-4-8-12-4-20 2-8 14-12 22-8zM704 358v-6c0-18-10-32-24-32h-40c-8 0-16-8-16-16s8-16 16-16h40c16 0 30 8 40 20 10-12 24-20 40-20h40c8 0 16 8 16 16s-8 16-16 16h-40c-12 0-24 16-24 38v180c0 22 12 38 24 38h40c8 0 16 8 16 16s-8 16-16 16h-40c-16 0-30-8-40-20-10 12-24 20-40 20h-40c-8 0-16-8-16-16s8-16 16-16h40c14 0 24-14 24-32z" />
<glyph unicode="&#xe03a;" glyph-name="icon-login-email" d="M832 704h-640c-36 0-64-28-64-64v-384c0-36 28-64 64-64h640c36 0 64 28 64 64v384c0 36-28 64-64 64zM192 672h640c18 0 32-14 32-32v-12l-308-206c-24-16-64-16-88 0l-308 206v12c0 18 14 32 32 32zM864 588v-280l-212 140zM372 448l-212-140v280zM832 224h-640c-18 0-32 14-32 32v12l240 160 50-32c18-12 40-18 62-18s44 6 62 18l50 32 240-160v-12c0-18-14-32-32-32z" />
<glyph unicode="&#xe03b;" glyph-name="icon-item-native-popup-lov" d="M960 704h-944c-8 0-16-8-16-16s8-16 16-16h304v-448h-304c-8 0-16-8-16-16s8-16 16-16h944c36 0 64 28 64 64v384c0 36-28 64-64 64zM960 224h-608v448h608c18 0 32-14 32-32v-384c0-18-14-32-32-32zM556 372l118 118 114-118c4-2 8-4 12-4s8 2 12 4c6 6 6 16 0 24l-138 138-142-138c-6-6-6-16 0-24 6-6 16-6 24 0z" />
<glyph unicode="&#xe03c;" glyph-name="icon-item-native-radiogroup" d="M416 672h512c8 0 16 8 16 16s-8 16-16 16h-512c-8 0-16-8-16-16s8-16 16-16zM928 576h-512c-8 0-16-8-16-16s8-16 16-16h512c8 0 16 8 16 16s-8 16-16 16zM928 320h-512c-8 0-16-8-16-16s8-16 16-16h512c8 0 16 8 16 16s-8 16-16 16zM928 192h-512c-8 0-16-8-16-16s8-16 16-16h512c8 0 16 8 16 16s-8 16-16 16zM160 384c-70 0-128-58-128-128s58-128 128-128 128 58 128 128-58 128-128 128zM160 160c-52 0-96 44-96 96s44 96 96 96 96-44 96-96-44-96-96-96zM288 640c0-70-58-128-128-128s-128 58-128 128 58 128 128 128 128-58 128-128z" />
<glyph unicode="&#xe03d;" glyph-name="icon-item-native-rich-text-editor" d="M1002 198l-174 416c-4 12-24 12-30 0l-172-416c-4-8 0-18 8-20 2-2 4-2 6-2 6 0 12 4 14 10l44 102h232l42-102c4-8 12-12 20-8 8 2 12 12 10 20zM710 320l104 246 102-246zM284 742c-4 12-24 12-28 0l-238-544c-4-8 0-18 8-20 8-4 18 0 20 8l74 166h300l74-166c2-6 8-10 14-10 2 0 4 0 6 2 8 2 12 12 8 20zM134 384l136 312 136-312z" />
<glyph unicode="&#xe03e;" glyph-name="icon-item-native-select-list" d="M1024 256v384c0 36-28 64-64 64h-944c-8 0-16-8-16-16s8-16 16-16h304v-448h-304c-8 0-16-8-16-16s8-16 16-16h944c36 0 64 28 64 64zM960 224h-608v448h608c18 0 32-14 32-32v-384c0-18-14-32-32-32zM556 524l118-118 114 118c4 2 8 4 12 4s8-2 12-4c6-6 6-16 0-24l-138-138-142 138c-6 6-6 16 0 24 6 6 16 6 24 0z" />
<glyph unicode="&#xe03f;" glyph-name="icon-item-native-shuttle" d="M432 272c-8 0-16-8-16-16v-128c0-18-14-32-32-32h-256c-18 0-32 14-32 32v672c0 18 14 32 32 32h256c18 0 32-14 32-32v-128c0-8 8-16 16-16s16 8 16 16v128c0 36-28 64-64 64h-256c-36 0-64-28-64-64v-672c0-36 28-64 64-64h256c36 0 64 28 64 64v128c0 8-8 16-16 16zM592 272c8 0 16-8 16-16v-128c0-18 14-32 32-32h256c18 0 32 14 32 32v672c0 18-14 32-32 32h-256c-18 0-32-14-32-32v-128c0-8-8-16-16-16s-16 8-16 16v128c0 36 28 64 64 64h256c36 0 64-28 64-64v-672c0-36-28-64-64-64h-256c-36 0-64 28-64 64v128c0 8 8 16 16 16zM332 580c6 6 6 18 0 24s-18 6-24 0l-138-140 138-140c4-2 8-4 12-4s8 2 12 4c6 6 6 18 0 24l-102 100h564l-102-100c-6-6-6-18 0-24 4-2 8-4 12-4s8 2 12 4l138 140-138 140c-6 6-18 6-24 0s-6-18 0-24l102-100h-564z" />
<glyph unicode="&#xe040;" glyph-name="icon-item-native-slider" d="M928 656h-462c-8 64-62 112-128 112-64 0-118-48-126-112h-132c-8 0-16-8-16-16s8-16 16-16h132c8-64 62-112 126-112 66 0 120 48 128 112h462c8 0 16 8 16 16s-8 16-16 16zM338 544c-52 0-96 44-96 96s44 96 96 96c54 0 96-44 96-96s-42-96-96-96zM80 240h462c8-64 62-112 128-112 64 0 118 48 126 112h132c8 0 16 8 16 16s-8 16-16 16h-132c-8 64-62 112-126 112-66 0-120-48-128-112h-462c-8 0-16-8-16-16s8-16 16-16zM670 352c52 0 96-44 96-96s-44-96-96-96c-54 0-96 44-96 96s42 96 96 96z" />
<glyph unicode="&#xe041;" glyph-name="icon-item-native-text-field" d="M896 736h-768c-36 0-64-28-64-64v-448c0-36 28-64 64-64h768c36 0 64 28 64 64v448c0 36-28 64-64 64zM896 192h-768c-18 0-32 14-32 32v448c0 18 14 32 32 32h768c18 0 32-14 32-32v-448c0-18-14-32-32-32zM288 358v-6c0-18-10-32-24-32h-40c-8 0-16-8-16-16s8-16 16-16h40c16 0 30 8 40 20 10-12 24-20 40-20h40c8 0 16 8 16 16s-8 16-16 16h-40c-12 0-24 16-24 38v180c0 22 12 38 24 38h40c8 0 16 8 16 16s-8 16-16 16h-40c-16 0-30-8-40-20-10 12-24 20-40 20h-40c-8 0-16-8-16-16s8-16 16-16h40c14 0 24-14 24-32z" />
<glyph unicode="&#xe042;" glyph-name="icon-item-native-textarea" d="M896 832h-768c-36 0-64-28-64-64v-640c0-36 28-64 64-64h768c36 0 64 28 64 64v640c0 36-28 64-64 64zM896 96h-768c-18 0-32 14-32 32v640c0 18 14 32 32 32h768c18 0 32-14 32-32v-640c0-18-14-32-32-32zM320 454v-6c0-18-10-32-24-32h-40c-8 0-16-8-16-16s8-16 16-16h40c16 0 30 8 40 20 10-12 24-20 40-20h40c8 0 16 8 16 16s-8 16-16 16h-40c-12 0-24 16-24 38v180c0 22 12 38 24 38h40c8 0 16 8 16 16s-8 16-16 16h-40c-16 0-30-8-40-20-10 12-24 20-40 20h-40c-8 0-16-8-16-16s8-16 16-16h40c14 0 24-14 24-32z" />
<glyph unicode="&#xe043;" glyph-name="icon-item-native-yes-no" d="M758 304l182 180c6 6 6 18 0 24s-18 6-24 0l-180-182-180 182c-6 6-18 6-24 0s-6-18 0-24l182-180-182-180c-6-6-6-18 0-24 4-2 8-4 12-4s8 2 12 4l180 182 180-182c4-2 8-4 12-4s8 2 12 4c6 6 6 18 0 24zM620 796c-6 6-18 6-24 0l-372-374-116 118c-6 6-18 6-24 0s-6-18 0-24l140-138 396 394c6 6 6 18 0 24z" />
<glyph unicode="&#xe044;" glyph-name="icon-region-native-tabform" d="M896 800h-768c-36 0-64-28-64-64v-64c0-36 28-64 64-64h768c36 0 64 28 64 64v64c0 36-28 64-64 64zM896 640h-768c-18 0-32 14-32 32v64c0 18 14 32 32 32h768c18 0 32-14 32-32v-64c0-18-14-32-32-32zM896 544h-768c-36 0-64-28-64-64v-64c0-36 28-64 64-64h768c36 0 64 28 64 64v64c0 36-28 64-64 64zM896 384h-768c-18 0-32 14-32 32v64c0 18 14 32 32 32h768c18 0 32-14 32-32v-64c0-18-14-32-32-32zM928 288h-128c-18 0-32-14-32-32v-64c0-18 14-32 32-32h128c18 0 32 14 32 32v64c0 18-14 32-32 32zM672 288h-128c-18 0-32-14-32-32v-64c0-18 14-32 32-32h128c18 0 32 14 32 32v64c0 18-14 32-32 32zM672 192h-128v64h128z" />
<glyph unicode="&#xe045;" glyph-name="item-plugin-masked-field" d="M672 736v-320h320v320zM938 704l-234-234v234zM726 448l234 234v-234zM256 256v32h-32v192h32v32h-96v-32h32v-192h-32v-32zM960 352v-128c0-20-12-32-32-32h-832c-20 0-32 12-32 32v320c0 20 12 32 32 32h512v32h-512c-36 0-64-28-64-64v-320c0-36 28-64 64-64h832c36 0 64 28 64 64v128z" />
<glyph unicode="&#xe046;" glyph-name="pencil" d="M922 858c-50 50-130 50-180 0l-612-610c-4-4-6-8-8-14l-56-192c-4-12 0-24 8-32 6-6 14-10 22-10 4 0 6 0 10 2l192 56c6 2 10 4 14 8l610 612c50 50 50 130 0 180zM272 118l-128-38 38 128 518 520 92-90zM878 722l-40-38-92 88 40 42c26 24 66 24 92 0 24-26 24-66 0-92z" />
<glyph unicode="&#xe047;" glyph-name="icon-pd-dynact" d="M944 556c-4 12-16 20-30 20h-290l138 340c4 14 0 30-12 38s-30 8-40-2l-622-576c-10-10-12-24-8-36s16-20 30-20h290l-138-340c-4-14 0-30 12-38 6-4 12-6 18-6 8 0 16 2 22 8l622 576c10 10 12 24 8 36zM376 88l102 252c4 10 2 22-4 30s-16 14-26 14h-256l456 424-102-252c-4-10-2-22 4-30s16-14 26-14h256z" />
<glyph unicode="&#xe048;" glyph-name="icon-shared-components" d="M896 320v-320h-320v320h320zM960 384h-448v-448h448zM224-64c-124 0-224 100-224 224s100 224 224 224 224-100 224-224-100-224-224-224zM224 320c-88 0-160-72-160-160s72-160 160-160 160 72 160 160-72 160-160 160zM808 448h-592l296 512zM328 512h368l-184 320z" />
<glyph unicode="&#xe049;" glyph-name="pencil-square-o" d="M922 860c-48 48-132 48-180 0l-420-420c-4-2-6-8-8-12l-56-194c-4-10 0-24 8-32 6-6 14-8 22-8h10l192 58c6 2 10 4 14 8l418 418c24 24 38 58 38 92s-14 66-38 90zM464 310l-128-38 38 130 326 326 94-88zM878 724l-40-40-92 90 40 40c24 24 68 24 92 0 12-12 18-28 18-44 0-18-6-34-18-46zM800 384c-18 0-32-14-32-32v-224c0-36-28-64-64-64h-512c-36 0-64 28-64 64v512c0 36 28 64 64 64h224c18 0 32 14 32 32s-14 32-32 32h-224c-70 0-128-58-128-128v-512c0-70 58-128 128-128h512c70 0 128 58 128 128v224c0 18-14 32-32 32z" />
<glyph unicode="&#xe04a;" glyph-name="icon-pd-processing" d="M320 192h-224c-18 0-32 14-32 32v448c0 18 14 32 32 32h224v-192l224 224-224 224v-192h-224c-52 0-96-44-96-96v-448c0-52 44-96 96-96h224c18 0 32 14 32 32s-14 32-32 32zM928 768h-224c-18 0-32-14-32-32s14-32 32-32h224c18 0 32-14 32-32v-448c0-18-14-32-32-32h-224v192l-224-224 224-224v192h224c52 0 96 44 96 96v448c0 52-44 96-96 96z" />
<glyph unicode="&#xe04b;" glyph-name="icon-utilites-recycle-bin" d="M384 386l52-32-26 108-106-26 52-32-80-134c-12-18-14-38-6-54 10-16 28-24 50-24h96v32h-96c-10 0-18 2-22 8-2 4 0 14 6 22zM708 324l-26-18c0-2 18-24 36-54 6-8 8-16 6-22-2-4-10-6-20-6h-160v62l-78-78 78-78v62h160c30 0 42 14 48 24 8 14 6 34-6 54-20 30-36 54-38 54zM512 586c6 0 14-4 20-14l80-136-52-32 106-26 26 108-52-32-82 134c-12 20-28 30-46 30s-34-10-46-30l-32-54 28-16 32 54c6 10 12 14 18 14zM968 782l-112 94c-12 10-38 20-56 20h-576c-18 0-44-10-56-20l-112-94c-12-12-22-34-18-52l116-698c4-18 20-32 38-32h640c18 0 34 14 38 32l116 698c4 18-6 40-18 52zM838 36c0-2-4-4-6-4h-640c-2 0-6 2-6 4l-118 700c0 6 4 18 10 22l110 92c8 8 26 14 36 14h576c10 0 28-6 36-14l110-92c6-4 10-16 10-22zM864 736h-704c-8 0-16-8-16-16s8-16 16-16h704c8 0 16 8 16 16s-8 16-16 16z" />
<glyph unicode="&#xe04c;" glyph-name="action-16" d="M864 768h-178l-150 180c-12 16-36 16-48 0l-150-180h-178c-18 0-32-14-32-32v-768c0-18 14-32 32-32h704c18 0 32 14 32 32v768c0 18-14 32-32 32zM832 0h-640v704h160c10 0 18 4 24 12l136 162 136-162c6-8 14-12 24-12h160zM352 576c-18 0-32-14-32-32s14-32 32-32h320c18 0 32 14 32 32s-14 32-32 32zM672 384h-320c-18 0-32-14-32-32s14-32 32-32h320c18 0 32 14 32 32s-14 32-32 32zM672 192h-320c-18 0-32-14-32-32s14-32 32-32h320c18 0 32 14 32 32s-14 32-32 32z" />
<glyph unicode="&#xe04d;" glyph-name="icon-open-in-dialog" d="M896 896h-640c-36 0-64-28-64-64v-256h64v256h640v-640h-256v-64h256c36 0 64 28 64 64v640c0 36-28 64-64 64zM96 416c0-18 14-32 32-32h274l-320-320c-12-12-12-32 0-46 8-6 16-8 24-8s16 2 22 8l320 320v-274c0-18 14-32 32-32s32 14 32 32v384h-384c-18 0-32-14-32-32z" />
<glyph unicode="&#xe04e;" glyph-name="database-16" d="M896 774c0 102-166 180-384 180s-384-78-384-180v-646c0-128 166-180 384-180s384 52 384 180v0 646zM512 890c198 0 320-68 320-116s-122-116-320-116-320 68-320 116 122 116 320 116zM832 128c0-64-122-116-320-116s-320 52-320 116v0 102c68-48 184-78 320-78s252 30 320 78v-102h2zM512 216c-198 0-320 66-320 116v118c68-46 184-78 320-78s252 32 320 78v-118c0-50-122-116-320-116zM512 436c-198 0-320 68-320 116v120c68-48 184-78 320-78s252 30 320 78v-120c0-48-122-116-320-116z" />
<glyph unicode="&#xe04f;" glyph-name="question-circle-o" d="M512 960c-282 0-512-230-512-512s230-512 512-512 512 230 512 512-230 512-512 512zM512 0c-248 0-448 200-448 448s200 448 448 448 448-200 448-448-200-448-448-448zM560 192c0-26-22-48-48-48s-48 22-48 48 22 48 48 48 48-22 48-48zM512 696c-92 0-168-76-168-168 0-22 18-40 40-40s40 18 40 40c0 48 40 88 88 88s88-40 88-88c0-26-16-40-48-64-46-26-76-74-80-128 0-22 18-40 40-40s40 18 40 40c0 26 16 40 48 64 46 26 76 74 80 128 0 92-76 168-168 168z" />
<glyph unicode="&#xe050;" glyph-name="icon-dev-debug" d="M928 608c52 0 96 44 96 96v160c0 18-14 32-32 32s-32-14-32-32v-160c0-18-14-32-32-32h-192c0 124-100 224-224 224s-224-100-224-224h-192c-18 0-32 14-32 32v160c0 18-14 32-32 32s-32-14-32-32v-160c0-52 44-96 96-96h96v-160h-160c-18 0-32-14-32-32s14-32 32-32h164c2-36 12-72 28-104l-140-40c-46-14-84-62-84-112v-128c0-18 14-32 32-32s32 14 32 32v128c0 20 18 46 38 50l156 46c58-78 150-128 254-128s196 50 254 128l156-46c20-4 38-30 38-50v-128c0-18 14-32 32-32s32 14 32 32v128c0 50-38 98-84 112l-140 40c16 32 26 68 28 104h164c18 0 32 14 32 32s-14 32-32 32h-160v160zM512 832c88 0 160-72 160-160h-320c0 88 72 160 160 160zM768 416c0-142-114-256-256-256s-256 114-256 256v192h512z" />
<glyph unicode="&#xe051;" glyph-name="icon-dev-edit-app" d="M896 64h-832v448h200l66 64h-266v128h402l68 64h-470c-36 0-64-28-64-64v-640c0-36 28-64 64-64h832c36 0 64 28 64 64v552l-64-60zM378 436l-48-126c-4-10 6-20 16-16l130 48c8 4 14 8 20 14l444 418c26 24 26 66 0 92l-10 10c-26 26-68 26-92 0l-444-416c-6-6-12-14-16-24z" />
<glyph unicode="&#xe052;" glyph-name="icon-comp-view" d="M960 576h-128c-36 0-64-28-64-64v-448c0-36 28-64 64-64h128c36 0 64 28 64 64v448c0 36-28 64-64 64zM960 64h-128v448h128zM640 576h-128c-36 0-64-28-64-64v-448c0-36 28-64 64-64h128c36 0 64 28 64 64v448c0 36-28 64-64 64zM640 64h-128v448h128zM320 576h-256c-36 0-64-28-64-64v-448c0-36 28-64 64-64h256c36 0 64 28 64 64v448c0 36-28 64-64 64zM320 64h-256v448h256zM960 896h-896c-36 0-64-28-64-64v-128c0-36 28-64 64-64h896c36 0 64 28 64 64v128c0 36-28 64-64 64zM960 704h-896v128h896z" />
<glyph unicode="&#xe053;" glyph-name="line-area-chart" d="M1014 830c-6 4-12 2-18-2l-404-406-212 214c-6 6-16 6-22 0l-326-296v476c0 8-8 16-16 16s-16-8-16-16v-736c0-8 8-16 16-16h992c8 0 16 8 16 16v736c0 6-4 12-10 14zM992 96h-960v200l336 306 212-214c4-2 8-4 12-4s8 2 12 4l388 390z" />
<glyph unicode="&#xe054;" glyph-name="icon-page-designer" d="M944 878c-24 26-58 40-92 40-28 0-56-8-76-28l-618-618c-12-10-18-24-24-38l-92-238c-4-10 4-20 16-20h6l236 90c14 6 28 14 38 24l618 618c44 48 36 126-12 170zM910 754l-618-618c-2-4-6-6-14-10l-138-52 52 136c4 10 8 14 10 16l616 616c12 10 24 12 34 12 18 0 34-6 46-20h2l2-2c10-10 18-26 18-42 2-8 0-26-10-36zM240 448l46 46-186 186c-14 12-14 32 0 46l134 134c14 14 34 14 46 0l40-38-62-64 44-44 62 62 58-56-64-64 46-44 108 108-186 186c-38 38-98 38-136 0l-136-136c-38-38-38-98 0-136zM970 262l-186 186-108-108 44-46 64 64 56-58-62-62 44-46 64 64 38-40c14-12 14-32 0-46l-134-134c-14-14-34-14-46 0l-186 186-46-46 186-186c20-18 44-28 68-28 26 0 50 10 68 28l136 136c38 38 38 98 0 136z" />
<glyph unicode="&#xe055;" glyph-name="icon-pd-comp-type" d="M224 960c-124 0-224-100-224-224s100-224 224-224 224 100 224 224-100 224-224 224zM224 576c-88 0-160 72-160 160s72 160 160 160 160-72 160-160-72-160-160-160zM0-64h448l-224 448zM104 0l120 240 120-240zM640 768h320c18 0 32 14 32 32s-14 32-32 32h-320c-18 0-32-14-32-32s14-32 32-32zM960 640h-320c-18 0-32-14-32-32s14-32 32-32h320c18 0 32 14 32 32s-14 32-32 32zM960 320h-320c-18 0-32-14-32-32s14-32 32-32h320c18 0 32 14 32 32s-14 32-32 32zM960 128h-320c-18 0-32-14-32-32s14-32 32-32h320c18 0 32 14 32 32s-14 32-32 32z" />
<glyph unicode="&#xe056;" glyph-name="icon-pd-proc-order" d="M640 832h320c18 0 32 14 32 32s-14 32-32 32h-320c-18 0-32-14-32-32s14-32 32-32zM960 704h-320c-18 0-32-14-32-32s14-32 32-32h320c18 0 32 14 32 32s-14 32-32 32zM960 320h-320c-18 0-32-14-32-32s14-32 32-32h320c18 0 32 14 32 32s-14 32-32 32zM960 128h-320c-18 0-32-14-32-32s14-32 32-32h320c18 0 32 14 32 32s-14 32-32 32zM222 92c62 32 132 68 132 144 0 82-68 148-148 148-82 0-148-66-148-148 0-16 14-32 32-32s32 16 32 32c0 46 36 84 82 84s84-38 84-84c0-34-34-56-94-86-62-30-130-66-130-144v-38c0-18 8-32 26-32h230c18 0 32 14 32 32s-14 32-32 32h-192v6c0 36 34 56 94 86zM94 818l98 56v-330c0-18 14-32 32-32s32 14 32 32v384c0 12-6 22-16 28s-22 6-32 0l-146-82c-14-8-20-28-12-44s28-20 44-12z" />
<glyph unicode="&#xe057;" glyph-name="icon-dev-quick-edit" d="M320 716v-608l150 174 134-318c6-12 18-20 30-20 4 0 8 2 12 4 16 6 24 24 18 42l-136 318 240-10zM64 256h-64v-192h192v64h-128zM960 128h-128v-64h192v192h-64zM960 896h-192v-64h192v-128h64v192zM0 896v-192h64v128h192v64zM384 896h256v-64h-256zM0 580h64v-188h-64zM960 580h64v-188h-64z" />
<glyph unicode="&#xe058;" glyph-name="apex-font-asterisk" d="M724 640c-8-20-20-38-32-58-8 6-14 6-20 14-52 24-90 50-108 76 6-32 12-76 12-134v-26h-32c-12 0-26 0-32 6v26c0 52 6 102 12 128-24-26-64-52-108-76-6-8-12-8-20-14-18 20-24 38-32 58 8 0 8 6 20 12 44 26 90 46 116 52-26 6-72 26-116 58-12 0-12 6-20 6 8 20 20 38 32 58 8-6 14-6 20-14 44-24 84-56 108-76-12 32-18 76-18 134v26h38c6 0 20 0 32-6v-26c0-52-6-102-12-128 18 20 56 52 108 76 6 8 12 8 20 14 12-14 24-32 32-58-8 0-14-6-20-6-52-32-90-52-122-58 32-6 78-26 122-52 6-6 12-12 20-12z" />
<glyph unicode="&#xe059;" glyph-name="user-wrench" d="M872 374c-10 2-20 0-28-6s-12-14-12-24v-88h-64v88c0 10-4 18-12 24s-18 8-28 6c-92-24-152-90-152-166 0-58 36-114 98-146 18-8 30-30 30-54v-40c0-18 14-32 32-32s32 14 32 32v40c0 48-24 90-64 112-40 20-64 54-64 88 0 36 24 68 64 88v-72c0-18 14-32 32-32h128c18 0 32 14 32 32v72c40-20 64-52 64-88 0-34-24-68-64-88-40-22-64-64-64-112v-40c0-18 14-32 32-32s32 14 32 32v40c0 24 12 46 30 54 62 32 98 88 98 146 0 76-60 142-152 166zM640 672c0 158-114 288-256 288s-256-130-256-288c0-106 52-198 128-248v-8c0-30-16-58-42-70l-134-60c-48-20-80-70-80-126v-64c0-18 14-32 32-32s32 14 32 32v64c0 30 16 58 42 68l134 60c42 20 70 60 78 108 20-8 42-12 66-12s46 4 66 12c4-20 8-40 20-56 6-10 16-16 26-16 6 0 12 2 18 6 14 8 20 28 10 44-8 12-12 26-12 42v8c76 50 128 142 128 248zM192 672c0 124 86 224 192 224s192-100 192-224-86-224-192-224-192 100-192 224z" />
<glyph unicode="&#xe05a;" glyph-name="icon-utilites-schema-comparison" d="M456 446c2 12 6 22 10 32-34-4-72-6-114-6-190 0-288 52-288 76v224c52-36 162-60 288-60s236 24 288 60v-140c10 2 22 4 32 6v182c0 60-144 108-320 108s-320-48-320-108v-272c0-60 144-108 320-108 36 0 72 2 104 6zM352 896c190 0 288-54 288-76s-98-76-288-76-288 54-288 76 98 76 288 76zM704 608c-124 0-224-100-224-224 0-50 16-96 44-134l-190-190c-12-12-12-32 0-46 8-6 16-8 24-8s16 2 22 8l190 190c38-28 84-44 134-44 124 0 224 100 224 224s-100 224-224 224zM840 248c-76-74-196-74-272 0-74 76-74 196 0 272 76 74 196 74 272 0 74-76 74-196 0-272z" />
<glyph unicode="&#xe05b;" glyph-name="icon-utilities-about-database" d="M64 384v96c56-32 150-48 240-48 40 0 76 4 112 10v32c-32-6-70-10-112-10-122 0-206 28-240 54v122c56-32 150-48 240-48s184 16 240 48v-96h32v288c0 54-122 96-272 96s-272-42-272-96v-448c0-54 122-96 272-96 28 0 54 2 80 6v30c-24-2-52-4-80-4-156 0-240 46-240 64zM304 896c156 0 240-46 240-64s-84-64-240-64-240 46-240 64 84 64 240 64zM64 786c46-30 136-50 240-50s194 20 240 50v-108c-34-26-118-54-240-54s-206 28-240 54zM704 544c-160 0-288-128-288-288s128-288 288-288 288 128 288 288-128 288-288 288zM704 0c-142 0-256 114-256 256s114 256 256 256 256-114 256-256-114-256-256-256zM672 416h64v-64h-64zM736 256v32h-96v-32h32v-128h-32v-32h128v32h-32z" />
<glyph unicode="&#xe05c;" glyph-name="icon-irr-details" d="M192 960h-128c-36 0-64-28-64-64v-128c0-36 28-64 64-64h128c36 0 64 28 64 64v128c0 36-28 64-64 64zM192 768h-128v128h128zM384 960h640v-64h-640zM384 832h640v-64h-640zM384 704h384v-64h-384zM192 256h-128c-36 0-64-28-64-64v-128c0-36 28-64 64-64h128c36 0 64 28 64 64v128c0 36-28 64-64 64zM192 64h-128v128h128zM384 256h640v-64h-640zM384 256h640v-64h-640zM384 128h640v-64h-640zM384 0h384v-64h-384z" />
<glyph unicode="&#xe05d;" glyph-name="calculator" d="M384 480c0-18-14-32-32-32s-32 14-32 32 14 32 32 32 32-14 32-32zM512 480c0-18-14-32-32-32s-32 14-32 32 14 32 32 32 32-14 32-32zM640 480c0-18-14-32-32-32s-32 14-32 32 14 32 32 32 32-14 32-32zM384 352c0-18-14-32-32-32s-32 14-32 32 14 32 32 32 32-14 32-32zM512 352c0-18-14-32-32-32s-32 14-32 32 14 32 32 32 32-14 32-32zM384 224c0-18-14-32-32-32s-32 14-32 32 14 32 32 32 32-14 32-32zM512 224c0-18-14-32-32-32s-32 14-32 32 14 32 32 32 32-14 32-32zM384 96c0-18-14-32-32-32s-32 14-32 32 14 32 32 32 32-14 32-32zM512 96c0-18-14-32-32-32s-32 14-32 32 14 32 32 32 32-14 32-32zM768 480c0-18-14-32-32-32s-32 14-32 32 14 32 32 32 32-14 32-32zM768 960h-448c-70 0-128-58-128-128v-768c0-70 58-128 128-128h448c70 0 128 58 128 128v768c0 70-58 128-128 128zM832 64c0-36-28-64-64-64h-448c-36 0-64 28-64 64v768c0 36 28 64 64 64h448c36 0 64-28 64-64zM736 832h-384c-18 0-32-14-32-32v-192c0-18 14-32 32-32h384c18 0 32 14 32 32v192c0 18-14 32-32 32zM704 640h-320v128h320zM736 384h-128c-18 0-32-14-32-32v-256c0-18 14-32 32-32h128c18 0 32 14 32 32v256c0 18-14 32-32 32zM704 128h-64v192h64z" />
<glyph unicode="&#xe05e;" glyph-name="icon-feedback" d="M384 576c0-36-28-64-64-64s-64 28-64 64 28 64 64 64 64-28 64-64zM576 576c0-36-28-64-64-64s-64 28-64 64 28 64 64 64 64-28 64-64zM768 576c0-36-28-64-64-64s-64 28-64 64 28 64 64 64 64-28 64-64zM768 896h-512c-142 0-256-114-256-256v-128c0-142 114-256 256-256h32c18 0 32-14 32-32v-146c0-20 16-32 32-32 8 0 16 2 22 8l192 192c6 6 14 10 24 10h178c142 0 256 114 256 256v128c0 142-114 256-256 256zM960 512c0-106-86-192-192-192h-178c-26 0-50-10-68-28l-138-138v70c0 52-44 96-96 96h-32c-106 0-192 86-192 192v128c0 106 86 192 192 192h512c106 0 192-86 192-192z" />
<glyph unicode="&#xe05f;" glyph-name="icon-utilities-data-workshop" d="M896 320h-96v-32h96c18 0 32-14 32-32v-160c0-18-14-32-32-32h-768c-18 0-32 14-32 32v160c0 18 14 32 32 32h96v32h-96c-36 0-64-28-64-64v-160c0-36 28-64 64-64h768c36 0 64 28 64 64v160c0 36-28 64-64 64zM494 434l162-162 162 162c6 6 6 16 0 22-6 8-16 8-22 0l-124-122v482c0 8-8 16-16 16s-16-8-16-16v-482l-124 122c-6 8-16 8-22 0-6-6-6-16 0-22zM530 670l-162 162-162-162c-6-6-6-16 0-22 6-8 16-8 22 0l124 122v-482c0-8 8-16 16-16s16 8 16 16v482l124-122c6-8 16-8 22 0 6 6 6 16 0 22z" />
<glyph unicode="&#xe060;" glyph-name="icon-auto-complete" d="M352 826c-4 12-16 20-30 20-12 0-24-8-30-20l-290-722c-6-16 2-36 18-42s36 2 42 18l96 240h326l94-240c6-12 18-20 30-20 4 0 8 0 12 2 16 6 24 26 18 42zM184 384l138 344 136-344zM768 512c0-36-28-64-64-64s-64 28-64 64 28 64 64 64 64-28 64-64zM1024 512c0-36-28-64-64-64s-64 28-64 64 28 64 64 64 64-28 64-64z" />
<glyph unicode="&#xe061;" glyph-name="icon-build-querry" d="M878 942c-26 24-66 24-92 0 0 0-10-10-22-24-12-12-36-22-54-22h-70c-2 36-30 64-64 64h-194c-52 0-102-20-140-56l-116-116c-118-114-92-152 58-82l76 36c28 12 56 18 86 18h38v-728c0-52 44-96 96-96h64c52 0 96 44 96 96v736h102l44-46c26-24 66-24 92 0 12 14 18 30 18 46v128c0 16-6 32-18 46zM576 32c0-18-14-32-32-32h-64c-18 0-32 14-32 32v544h128z" />
<glyph unicode="&#xe062;" glyph-name="icon-add-comment" d="M480 928c-266 0-480-172-480-384 0-122 72-228 184-298l-26-246c-2-22 14-36 30-36 8 0 14 2 20 8l214 196c18-2 38-4 58-4 266 0 480 168 480 380s-214 384-480 384zM480 228c-16 0-32 0-52 2l-28 4-22-20-146-134 16 160 4 38-34 22c-100 62-154 150-154 244 0 176 186 320 416 320s416-144 416-320c0-174-186-316-416-316zM640 576h-128v128c0 18-14 32-32 32s-32-14-32-32v-128h-128c-18 0-32-14-32-32s14-32 32-32h128v-128c0-18 14-32 32-32s32 14 32 32v128h128c18 0 32 14 32 32s-14 32-32 32z" />
<glyph unicode="&#xe063;" glyph-name="eyedropper" d="M962 858c-28 40-72 66-120 70s-96-14-130-48l-100-100-44 42c-12 14-34 14-46 0-12-12-12-32 0-44l44-44-390-390c-26-26-44-62-46-100l-2-32c-2-20-10-40-24-56l-62-70c-12-14-12-32 0-44l64-64c6-6 14-10 24-10 6 0 14 2 20 8l70 62c16 14 36 22 56 24l32 2c38 4 74 20 102 48l388 388 44-42c6-6 14-10 24-10 8 0 16 4 22 10 12 12 12 32 0 44l-44 44 96 96c60 60 70 152 22 216zM364 156c-16-16-38-26-60-28l-32-2c-34-2-68-16-94-40l-48-42-22 22 44 48c22 26 36 58 40 92l2 32c2 24 12 44 28 60l390 390 142-142zM894 686l-96-94-142 142 102 100c20 22 50 32 78 30 30-2 56-18 74-42 28-40 22-98-16-136z" />
<glyph unicode="&#xe064;" glyph-name="icon-shuttle-top" d="M768 832h-576c-18 0-32 14-32 32s14 32 32 32h576c18 0 32-14 32-32s-14-32-32-32zM208 432c-12-12-12-32 0-44 12-14 34-14 46 0l194 194v-550c0-18 14-32 32-32 8 0 16 4 22 10s10 14 10 22v550l194-194c12-14 34-14 46 0 12 12 12 32 0 44l-272 272z" />
<glyph unicode="&#xe065;" glyph-name="apex-theme-roller-contrast-icon" d="M512 960c282 0 512-230 512-512s-230-512-512-512-512 230-512 512 230 512 512 512zM512 896v-896c248 0 448 200 448 448s-200 448-448 448z" />
<glyph unicode="&#xe066;" glyph-name="reorder" d="M160 704h704c18 0 32 14 32 32s-14 32-32 32h-704c-18 0-32-14-32-32s14-32 32-32zM864 576h-704c-18 0-32-14-32-32s14-32 32-32h704c18 0 32 14 32 32s-14 32-32 32zM864 384h-704c-18 0-32-14-32-32s14-32 32-32h704c18 0 32 14 32 32s-14 32-32 32zM864 192h-704c-18 0-32-14-32-32s14-32 32-32h704c18 0 32 14 32 32s-14 32-32 32z" />
<glyph unicode="&#xe067;" glyph-name="icon-mobile-16" d="M576 96c0-36-28-64-64-64s-64 28-64 64 28 64 64 64 64-28 64-64zM672 960h-320c-52 0-96-44-96-96v-832c0-52 44-96 96-96h320c52 0 96 44 96 96v832c0 52-44 96-96 96zM704 32c0-18-14-32-32-32h-320c-18 0-32 14-32 32v160h384zM704 256h-384v448h384zM320 768v96c0 18 14 32 32 32h304c18 0 48-14 48-32v-96z" />
<glyph unicode="&#xe068;" glyph-name="delta" d="M956 46l-416 832c-10 22-46 22-56 0l-416-832c-6-10-6-22 0-30 6-10 16-16 28-16h832c12 0 22 6 28 16 6 8 6 20 0 30zM148 64l332 666 332-666z" />
<glyph unicode="&#xe069;" glyph-name="irr-ws-col-add" d="M832 512h-320v320c0 18-14 32-32 32s-32-14-32-32v-320h-320c-18 0-32-14-32-32s14-32 32-32h320v-320c0-18 14-32 32-32s32 14 32 32v320h320c18 0 32 14 32 32s-14 32-32 32z" />
<glyph unicode="&#xe06a;" glyph-name="flashlight" d="M830 488c-2 12-12 20-22 24l-170 42c-50 12-98 38-134 76l-64 64c12 18 10 44-6 60s-42 18-60 6l-146 146c-18 18-42 28-68 28s-50-10-68-28l-38-38c-18-18-28-42-28-68s10-50 28-68l276-276c38-36 64-84 76-134l42-170c4-10 12-20 24-22 2-2 6-2 8-2 8 0 16 4 22 10l320 320c8 8 12 20 8 30zM100 778c-6 6-10 14-10 22s4 16 10 22l38 38c6 6 14 10 22 10s16-4 22-10l276-276c4-2 6-6 10-8l-84-84c-2 4-6 6-8 10zM498 222l-28 116c-10 36-26 72-46 104l94 94c32-20 68-36 104-46l116-28zM790 214c-12 14-32 14-44 0-14-12-14-32 0-44l96-96c6-6 14-10 22-10s16 4 22 10c14 12 14 32 0 44zM970 286l-96 32c-16 6-34-4-40-20s4-34 20-40l96-32c4-2 6-2 10-2 14 0 26 8 30 22 6 16-4 34-20 40zM702 106c-6 16-24 26-40 20s-26-24-20-40l32-96c4-14 16-22 30-22 4 0 6 0 10 2 16 6 26 24 20 40z" />
<glyph unicode="&#xe06b;" glyph-name="icon-sc-app-process" d="M704 352c-54 0-96-42-96-96s42-96 96-96 96 42 96 96-42 96-96 96zM704 192c-36 0-64 28-64 64s28 64 64 64 64-28 64-64-28-64-64-64zM992 192v128l-90 18 50 76-90 90-76-50c2 0-18 90-18 90h-128l-24-92c2 0-70 52-70 52l-90-90s50-74 50-76-90-18-90-18v-128s90-16 90-18-50-76-50-76l90-90s74 50 76 50 18-90 18-90h128s20 90 18 90l76-50 90 90-50 76zM882 208l-20-44 48-64-50-50-64 48-44-20-12-78h-72l-12 78-44 20-64-48-50 50 48 64-20 44-78 12v72l78 12 20 44-48 64 50 50 64-48 44 20 12 78h70l12-78 46-20 64 48 50-50-48-64 20-44 78-12v-72zM430 480h-314c-18 0-20 14-20 32v256h512v-174h32v238c0 36-28 64-64 64h-448c-36 0-64-28-64-64v-320c0-36 28-64 64-64h302zM96 832c0 18 2 32 20 32h448c18 0 44-14 44-32v-32h-512z" />
<glyph unicode="&#xe06c;" glyph-name="item-plugin-search-box" d="M992 304c0-44-36-80-80-80h-800c-44 0-80 36-80 80v288c0 44 36 80 80 80h800c44 0 80-36 80-80zM960 592c0 26-22 48-48 48h-800c-26 0-48-22-48-48v-288c0-26 22-48 48-48h800c26 0 48 22 48 48zM992 304c0-44-36-80-80-80h-800c-44 0-80 36-80 80v288c0 44 36 80 80 80h800c44 0 80-36 80-80zM960 592c0 26-22 48-48 48h-800c-26 0-48-22-48-48v-288c0-26 22-48 48-48h800c26 0 48 22 48 48zM412 346l-80 80c10 16 16 34 16 54 0 54-40 96-96 96-54 0-96-42-96-96s42-96 96-96c24 0 42 6 58 20l80-80zM192 480c0 36 28 64 64 64s64-28 64-64-28-64-64-64-64 28-64 64z" />
<glyph unicode="&#xe06d;" glyph-name="item-plugin-tags" d="M832 788c20 0 32-14 32-32v-266c0-26-16-68-36-86l-310-308c-6-6-12-10-22-10s-16 4-22 10l-302 300c-12 14-12 32 0 46l308 310c20 20 60 36 86 36h266zM832 820h-266c-34 0-82-20-108-46l-308-310c-26-26-26-68 0-90l302-300c12-14 28-20 44-20s32 6 44 20l312 306c24 26 44 74 44 110v266c0 34-28 64-64 64zM704 548c-44 0-80 34-80 80 0 44 36 80 80 80s80-36 80-80c0-42-36-80-80-80zM704 676c-26 0-48-24-48-48 0-26 22-48 48-48s48 22 48 48c0 28-22 48-48 48zM516 298c-4 0-10 0-14 2l-128 128c-6 8-6 16 0 24 6 6 16 6 22 0l128-128c8-8 8-16 0-24 0-2-6-2-8-2zM612 394c-4 0-10 0-14 2l-128 128c-6 8-6 16 0 24 6 6 16 6 22 0l128-128c8-8 8-16 0-24 0-2-6-2-8-2z" />
<glyph unicode="&#xe06e;" glyph-name="region" d="M832 832h-640c-36 0-64-28-64-64v-640c0-36 28-64 64-64h640c36 0 64 28 64 64v640c0 36-28 64-64 64zM864 128c0-20-12-32-32-32h-640c-20 0-32 12-32 32v512h704zM160 672v96c0 20 12 32 32 32h640c20 0 32-12 32-32v-96z" />
<glyph unicode="&#xe06f;" glyph-name="icon-region-native-breadcrumb" d="M852 616c-12 16-30 24-50 24h-706c-36 0-64-28-64-64v-256c0-36 28-64 64-64h706c20 0 38 8 50 24l140 168zM550 608l134-160-134-160h-242l128 160-128 160zM96 608h166l134-160-134-160h-166c-18 0-32 14-32 32v256c0 18 14 32 32 32zM802 288h-206l128 160-130 160h208c10 0 18-4 24-12l124-148-124-148c-6-8-14-12-24-12z" />
<glyph unicode="&#xe070;" glyph-name="icon-region-native-jqm-column-toggle-16" d="M640 960h-256c-36 0-64-28-64-64v-896c0-36 28-64 64-64h256c36 0 64 28 64 64v896c0 36-28 64-64 64zM640 0h-256v256h256zM640 320h-256v256h256zM640 640h-256v256h256zM196 566c-12 14-32 14-46 0l-150-150 150-150c6-6 16-10 24-10s16 4 22 10c12 12 12 32 0 44l-106 106 106 106c12 12 12 32 0 44zM874 566c-14 14-34 14-46 0-12-12-12-32 0-44l106-106-106-106c-12-12-12-32 0-44 6-6 14-10 22-10s18 4 24 10l150 150z" />
<glyph unicode="&#xe071;" glyph-name="icon-region-native-calendar" d="M336 720c8 0 16 8 16 16v128c0 8-8 16-16 16s-16-8-16-16v-128c0-8 8-16 16-16zM384 800h256v-32h-256zM832 800h-96v-32h96c18 0 32-14 32-32v-64h-704v64c0 18 14 32 32 32h96v32h-96c-36 0-64-28-64-64v-640c0-36 28-64 64-64h640c36 0 64 28 64 64v640c0 36-28 64-64 64zM832 64h-640c-18 0-32 14-32 32v544h704v-544c0-18-14-32-32-32zM688 720c8 0 16 8 16 16v128c0 8-8 16-16 16s-16-8-16-16v-128c0-8 8-16 16-16zM288 256h64v-64h-64zM416 256h64v-64h-64zM544 256h64v-64h-64zM288 384h64v-64h-64zM416 384h64v-64h-64zM544 384h64v-64h-64zM672 384h64v-64h-64zM416 512h64v-64h-64zM544 512h64v-64h-64zM672 512h64v-64h-64z" />
<glyph unicode="&#xe072;" glyph-name="region-native-data-upload-column-mapping" d="M832 352h-224v-32h224c20 0 32-12 32-32v-160c0-20-12-32-32-32h-608c-20 0-32 12-32 32v160c0 20 12 32 32 32h224v32h-224c-36 0-64-28-64-64v-160c0-36 28-64 64-64h608c36 0 64 28 64 64v160c0 36-28 64-64 64zM756 604l-228 228-228-228c-6-6-6-16 0-22 8-6 16-6 24 0l188 190v-548c0-10 6-16 16-16s16 6 16 16v548l188-190c8-6 16-6 24 0 6 6 6 16 0 22z" />
<glyph unicode="&#xe073;" glyph-name="icon-region-native-display-selector" d="M896 640h-768c-36 0-64-28-64-64v-416c0-36 28-64 64-64h768c36 0 64 28 64 64v416c0 36-28 64-64 64zM896 128h-768c-18 0-32 14-32 32v416c0 18 14 32 32 32h768c18 0 32-14 32-32v-416c0-18-14-32-32-32zM192 704h128c18 0 32 14 32 32v64c0 18-14 32-32 32h-128c-18 0-32-14-32-32v-64c0-18 14-32 32-32zM448 704h128c18 0 32 14 32 32v64c0 18-14 32-32 32h-128c-18 0-32-14-32-32v-64c0-18 14-32 32-32zM448 800h128v-64h-128zM832 832h-128c-18 0-32-14-32-32v-64c0-18 14-32 32-32h128c18 0 32 14 32 32v64c0 18-14 32-32 32zM832 736h-128v64h128z" />
<glyph unicode="&#xe074;" glyph-name="icon-util-session-state-statistics" d="M928 96h-32v448c0 18-14 32-32 32h-160c-18 0-32-14-32-32v-448h-64v704c0 18-14 32-32 32h-160c-18 0-32-14-32-32v-704h-64v256c0 18-14 32-32 32h-160c-18 0-32-14-32-32v-256h-32c-8 0-16-8-16-16s8-16 16-16h864c8 0 16 8 16 16s-8 16-16 16zM128 96v256h160v-256zM416 96v704h160v-704zM704 96v448h160v-448z" />
<glyph unicode="&#xe075;" glyph-name="icon-region-native-flash-map" d="M768 640c0 142-114 256-256 256s-256-114-256-256c0-228 256-566 256-566s256 338 256 566zM288 640c0 124 100 224 224 224s224-100 224-224c0-172-160-420-224-512-64 92-224 340-224 512zM512 750c-60 0-110-50-110-110s50-110 110-110 110 50 110 110-50 110-110 110zM512 562c-42 0-78 36-78 78s36 78 78 78 78-36 78-78-36-78-78-78zM966 32l-182 182c-6 6-16 10-24 10h-88c-8 0-16-8-16-16s8-16 16-16h90l160-160h-820l162 160h88c8 0 16 8 16 16s-8 16-16 16h-88c-8 0-18-4-24-10l-182-182c-6-6-8-14-4-20 2-8 10-12 18-12h880c8 0 16 4 18 12 4 6 2 14-4 20z" />
<glyph unicode="&#xe076;" glyph-name="icon-region-native-fnc-report" d="M708 272l136 166c6 6 4 16-2 22s-16 6-22-2l-132-160-132 160c-6 6-16 8-22 2s-8-16-2-22l136-166-136-166c-6-6-4-16 2-22 2-2 6-4 10-4s10 2 12 6l132 160 132-160c2-4 8-6 12-6s8 2 10 4c6 6 8 16 2 22zM454 512h-134v146c0 80 78 144 144 144 32 0 68-16 96-42 8-6 18-6 24 0s6 16-2 22c-34 32-78 52-118 52-82 0-176-78-176-176v-146h-136c-8 0-16-8-16-16s8-16 16-16h136v-270c0-44-12-98-72-98-24 0-48 28-62 44-4 6-14 6-22 2-6-6-8-16-2-24 16-18 46-54 86-54 66 0 104 48 104 130v270h134c8 0 16 8 16 16s-8 16-16 16z" />
<glyph unicode="&#xe077;" glyph-name="icon-region-native-help-text" d="M512 896c-248 0-448-200-448-448s200-448 448-448 448 200 448 448-200 448-448 448zM512 32c-230 0-416 186-416 416s186 416 416 416 416-186 416-416-186-416-416-416zM512 668c-70 0-128-58-128-128 0-8 8-16 16-16s16 8 16 16c0 52 44 96 96 96s96-44 96-96c0-32-20-48-42-68-26-20-54-44-54-92v-44c0-8 8-16 16-16s16 8 16 16v44c0 32 20 48 42 68 26 20 54 44 54 92 0 70-58 128-128 128zM560 224c0-18-14-32-32-32s-32 14-32 32 14 32 32 32 32-14 32-32z" />
<glyph unicode="&#xe078;" glyph-name="icon-region-native-ir" d="M736 288h-320v160h224v32h-224v160h224v32h-544c-36 0-64-28-64-64v-480c0-36 28-64 64-64h608c36 0 64 28 64 64v224h-32zM384 96h-288c-18 0-32 14-32 32v128h320zM384 288h-320v160h320zM384 480h-320v128c0 18 14 32 32 32h288zM704 96h-288v160h320v-128c0-18-14-32-32-32zM848 568l144-4-288 268v-390l98 108 92-208c4-8 14-14 22-14 4 0 8 0 10 2 12 6 18 20 12 32z" />
<glyph unicode="&#xe079;" glyph-name="icon-region-native-jqm-list-view" d="M128 448h768c8 0 16 8 16 16s-8 16-16 16h-768c-8 0-16-8-16-16s8-16 16-16zM128 768h384c8 0 16 8 16 16s-8 16-16 16h-384c-8 0-16-8-16-16s8-16 16-16zM772 660c4-2 8-4 12-4s8 2 12 4l122 124-122 124c-6 6-18 6-24 0s-6-18 0-24l102-100-102-100c-6-6-6-18 0-24zM512 160h-384c-8 0-16-8-16-16s8-16 16-16h384c8 0 16 8 16 16s-8 16-16 16zM772 268c-6-6-6-18 0-24l102-100-102-100c-6-6-6-18 0-24 4-2 8-4 12-4s8 2 12 4l122 124-122 124c-6 6-18 6-24 0z" />
<glyph unicode="&#xe07a;" glyph-name="icon-region-native-jqm-reflow" d="M800 640h-320c-8 0-16-8-16-16s8-16 16-16h320c8 0 16 8 16 16s-8 16-16 16zM800 480h-320c-8 0-16-8-16-16s8-16 16-16h320c8 0 16 8 16 16s-8 16-16 16zM800 320h-320c-8 0-16-8-16-16s8-16 16-16h320c8 0 16 8 16 16s-8 16-16 16zM340 124l-84-86v698c0 54 42 96 96 96h448c8 0 16 8 16 16s-8 16-16 16h-448c-70 0-128-58-128-128v-698l-84 86c-6 6-18 6-24 0s-6-18 0-24l124-122 124 122c6 6 6 18 0 24s-18 6-24 0z" />
<glyph unicode="&#xe07b;" glyph-name="icon-region-native-list" d="M336 704h608c8 0 16 8 16 16s-8 16-16 16h-608c-8 0-16-8-16-16s8-16 16-16zM944 224h-608c-8 0-16-8-16-16s8-16 16-16h608c8 0 16 8 16 16s-8 16-16 16zM160 720c0-26-22-48-48-48s-48 22-48 48 22 48 48 48 48-22 48-48zM944 480h-608c-8 0-16-8-16-16s8-16 16-16h608c8 0 16 8 16 16s-8 16-16 16zM160 464c0-26-22-48-48-48s-48 22-48 48 22 48 48 48 48-22 48-48zM160 208c0-26-22-48-48-48s-48 22-48 48 22 48 48 48 48-22 48-48z" />
<glyph unicode="&#xe07c;" glyph-name="icon-region-native-plsql" d="M940 124c-6 6-18 6-24 0l-84-86v666c0 70-58 128-128 128h-192c-8 0-16-8-16-16s8-16 16-16h192c54 0 96-42 96-96v-666l-84 86c-6 6-18 6-24 0s-6-18 0-24l124-122 124 122c6 6 6 18 0 24zM640 576h-256c-8 0-16-8-16-16s8-16 16-16h256c8 0 16 8 16 16s-8 16-16 16zM640 448h-256c-8 0-16-8-16-16s8-16 16-16h256c8 0 16 8 16 16s-8 16-16 16zM640 320h-256c-8 0-16-8-16-16s8-16 16-16h256c8 0 16 8 16 16s-8 16-16 16zM512 64h-192c-54 0-96 42-96 96v698l84-86c4-2 8-4 12-4s8 2 12 4c6 6 6 18 0 24l-124 122-124-122c-6-6-6-18 0-24s18-6 24 0l84 86v-698c0-70 58-128 128-128h192c8 0 16 8 16 16s-8 16-16 16z" />
<glyph unicode="&#xe07d;" glyph-name="icon-region-native-sql-report" d="M896 800h-800c-36 0-64-28-64-64v-576c0-36 28-64 64-64h800c36 0 64 28 64 64v576c0 36-28 64-64 64zM96 768h384v-192h-416v160c0 18 14 32 32 32zM64 544h416v-192h-416zM64 160v160h416v-192h-384c-18 0-32 14-32 32zM896 128h-384v192h416v-160c0-18-14-32-32-32zM928 352h-416v192h416zM512 576v192h384c18 0 32-14 32-32v-160z" />
<glyph unicode="&#xe07e;" glyph-name="icon-region-native-static" d="M256 240c-4 0-8 2-12 4l-202 204 202 204c6 6 18 6 24 0s6-18 0-24l-182-180 182-180c6-6 6-18 0-24-4-2-8-4-12-4zM768 240c-4 0-8 2-12 4-6 6-6 18 0 24l182 180-182 180c-6 6-6 18 0 24s18 6 24 0l202-204-202-204c-4-2-8-4-12-4zM384 48h-6c-8 4-12 12-10 22l256 768c4 8 12 12 22 10 8-4 12-12 10-22l-256-768c-4-6-10-10-16-10z" />
<glyph unicode="&#xe07f;" glyph-name="check-square-o2" d="M714 630l-298-296-106 104c-12 14-32 14-44 0-14-12-14-32 0-44l128-128c6-6 14-10 22-10s16 4 22 10l320 320c14 12 14 32 0 44-12 14-32 14-44 0zM832 896h-640c-70 0-128-58-128-128v-640c0-70 58-128 128-128h640c70 0 128 58 128 128v640c0 70-58 128-128 128zM896 128c0-36-28-64-64-64h-640c-36 0-64 28-64 64v640c0 36 28 64 64 64h640c36 0 64-28 64-64z" />
<glyph unicode="&#xe081;" glyph-name="required-icon" d="M0 960h320l-320-320z" />
<glyph unicode="&#xe082;" glyph-name="icon-region-plugin" d="M972 648c-6 6-18 6-24 0l-184-184-236 236 184 184c6 6 6 18 0 24-8 6-18 6-24 0l-184-184-86 86-236-234c-78-78-78-206 0-284l76-76-206-204c-6-6-6-18 0-24 4-2 8-4 12-4s8 2 12 4l204 206 76-76c38-36 88-58 142-58s104 22 142 58l234 236-86 86 184 184c6 6 6 16 0 24zM828 354l-212-212c-32-32-74-50-118-50-46 0-88 18-118 50l-174 174c-66 64-66 172 0 236l212 212zM420 510l154-154c4-2 8-4 12-4s8 2 10 4c6 6 6 16 0 24l-152 152c-8 6-18 6-24 0s-6-16 0-22zM344 432c-6 8-16 8-24 0-6-6-6-16 0-22l154-154c4-2 8-4 12-4s8 2 10 4c8 8 8 18 0 24z" />
<glyph unicode="&#xe083;" glyph-name="region-native-tabform" d="M832 556l-74 74 20 20 54-54 54 54 20-20zM928 384c20 0 32-12 32-32v-128c0-20-12-32-32-32h-832c-20 0-32 12-32 32v128c0 20 12 32 32 32h832zM928 416h-832c-36 0-64-28-64-64v-128c0-36 28-64 64-64h832c36 0 64 28 64 64v128c0 36-28 64-64 64zM928 736h-832c-36 0-64-28-64-64v-128c0-36 28-64 64-64h832c36 0 64 28 64 64v128c0 36-28 64-64 64zM96 512c-20 0-32 12-32 32v128c0 20 12 32 32 32h576v-192zM960 544c0-20-12-32-32-32h-224v192h224c20 0 32-12 32-32z" />
<glyph unicode="&#xe084;" glyph-name="region-native-url" d="M576 480v-224h288v224zM832 288h-224v160h224zM960 736h-896c-36 0-64-28-64-64v-448c0-36 28-64 64-64h896c36 0 64 28 64 64v448c0 36-28 64-64 64zM992 224c0-20-12-32-32-32h-896c-20 0-32 12-32 32v320h960zM32 576v96c0 20 12 32 32 32h896c20 0 32-12 32-32v-96zM320 640c0-18-14-32-32-32s-32 14-32 32 14 32 32 32 32-14 32-32zM224 640c0-18-14-32-32-32s-32 14-32 32 14 32 32 32 32-14 32-32zM128 640c0-18-14-32-32-32s-32 14-32 32 14 32 32 32 32-14 32-32zM464 464c0 10-6 16-16 16h-288c-10 0-16-6-16-16s6-16 16-16h288c10 0 16 6 16 16zM464 368c0 10-6 16-16 16h-288c-10 0-16-6-16-16s6-16 16-16h288c10 0 16 6 16 16zM464 272c0 10-6 16-16 16h-288c-10 0-16-6-16-16s6-16 16-16h288c10 0 16 6 16 16z" />
<glyph unicode="&#xe085;" glyph-name="region-plugin" d="M608 544c20 0 32-12 32-32v-150c0-26-16-68-36-86l-182-184c-6-6-12-8-22-8s-16 2-22 8l-190 190c-6 6-8 12-8 22s2 16 8 22l184 182c18 20 60 36 86 36h150zM608 576h-150c-36 0-84-20-110-44l-182-184c-26-24-26-66 0-88l190-190c12-12 28-18 44-18s32 6 44 18l184 182c24 26 44 74 44 110v150c0 36-28 64-64 64zM544 416c0-18-14-32-32-32s-32 14-32 32 14 32 32 32 32-14 32-32zM806 368h-64c-10 0-16 6-16 16s6 16 16 16h64c64 0 112 52 112 112s-50 112-112 112c-10 0-22-4-34-6l-26-10 6 28c4 14 4 30 4 42 0 112-90 202-202 202-110 0-202-90-202-196v-24l-22 12c-26 10-48 16-70 16-80 0-148-64-148-144 0-32 10-60 28-86 8-6 4-16-2-22-6-8-16-4-22 2-24 32-36 68-36 106 0 96 80 176 180 176 22 0 40-4 64-12 12 114 114 204 232 204 128 0 234-106 234-234v-26c90 14 166-56 166-140-2-80-70-144-150-144z" />
<glyph unicode="&#xe086;" glyph-name="icon-region-native-jqm-list-view-16" d="M810 650c6-6 14-10 22-10s16 4 22 10l152 150-152 150c-12 14-32 14-44 0-14-12-14-32 0-44l104-106-104-106c-14-12-14-32 0-44zM810 310c-14-12-14-32 0-44l104-106-104-106c-14-12-14-32 0-44 6-6 14-10 22-10s16 4 22 10l152 150-152 150c-12 14-32 14-44 0zM64 448h896c18 0 32 14 32 32s-14 32-32 32h-896c-18 0-32-14-32-32s14-32 32-32zM64 768h384c18 0 32 14 32 32s-14 32-32 32h-384c-18 0-32-14-32-32s14-32 32-32zM448 192h-384c-18 0-32-14-32-32s14-32 32-32h384c18 0 32 14 32 32s-14 32-32 32z" />
<glyph unicode="&#xe087;" glyph-name="apex-font-small-button-89" d="M768 256h-512c-108 0-192 84-192 192s84 192 192 192h512c108 0 192-84 192-192s-84-192-192-192zM768 576h-512c-70 0-128-58-128-128s58-128 128-128h512c70 0 128 58 128 128s-58 128-128 128z" />
<glyph unicode="&#xe088;" glyph-name="icon-utilities-query-builder" d="M704 352c-54 0-96-42-96-96s42-96 96-96 96 42 96 96-42 96-96 96zM704 192c-36 0-64 28-64 64s28 64 64 64 64-28 64-64-28-64-64-64zM992 192v128l-88 12c-2 4-2 8-4 12l52 70-90 90-70-52c-4 2-8 2-12 4l-12 88h-128l-12-88c-4-2-8-2-12-4l-70 52-90-90 52-70c-2-4-2-8-4-12l-88-12v-128l88-12c2-4 2-8 4-12l-52-70 90-90 70 52c4-2 8-2 12-4l12-88h128l12 88c4 2 8 2 12 4l70-52 90 90-52 70c2 4 2 8 4 12zM882 208l-8-18c0-2-2-6-4-8l-8-18 12-14 36-50-50-50-50 36-14 12-18-8c-2-2-6-4-8-4l-18-8-4-18-8-60h-72l-8 60-4 18-18 8c-2 0-6 2-8 4l-18 8-14-12-50-36-50 50 36 50 12 14-8 18c-2 2-4 6-4 8l-8 18-18 4-60 8v72l60 8 18 4 8 18c0 2 2 6 4 8l8 18-12 14-36 50 50 50 50-36 14-12 18 8c2 2 6 4 8 4l18 8 4 18 8 60h70l10-60 2-18 18-8c4 0 8-2 10-4l18-8 14 12 50 36 50-50-36-50-12-14 8-18c2-2 4-6 4-8l8-18 18-4 60-8v-72l-60-8zM64 400v416c0 26 22 48 48 48h608c26 0 48-22 48-48v-240h32v240c0 44-36 80-80 80h-608c-44 0-80-36-80-80v-416c0-44 36-80 80-80h272v32h-272c-26 0-48 22-48 48zM160 768h128v-32h-128zM224 672h448v-32h-448zM224 576h320v-32h-320zM224 480h160v-32h-160z" />
<glyph unicode="&#xe089;" glyph-name="icon-app-database" d="M864 864h-768c-36 0-64-28-64-64v-704c0-36 28-64 64-64h768c36 0 64 28 64 64v704c0 36-28 64-64 64zM896 96c0-18-14-32-32-32h-768c-18 0-32 14-32 32v576h832zM64 704v96c0 18 14 32 32 32h768c18 0 32-14 32-32v-96zM516 182c2-6 8-10 14-10 2 0 4 0 6 2 8 2 12 12 8 20l-74 176 138-10-256 238v-348l88 108z" />
<glyph unicode="&#xe08a;" glyph-name="icon-app-websheet" d="M960 832h-896c-36 0-64-28-64-64v-640c0-36 28-64 64-64h896c36 0 64 28 64 64v640c0 36-28 64-64 64zM992 128c0-20-12-32-32-32h-896c-20 0-32 12-32 32v512h960zM32 672v96c0 20 12 32 32 32h896c20 0 32-12 32-32v-96zM320 736c0-18-14-32-32-32s-32 14-32 32 14 32 32 32 32-14 32-32zM224 736c0-18-14-32-32-32s-32 14-32 32 14 32 32 32 32-14 32-32zM128 736c0-18-14-32-32-32s-32 14-32 32 14 32 32 32 32-14 32-32zM96 576v-416h544v416zM128 416h192v-96h-192zM128 192v96h192v-96zM608 192h-256v96h256zM608 320h-256v96h256zM608 448h-480v96h480zM704 576v-288h224v288zM896 320h-160v128h160zM896 480h-160v64h160z" />
<glyph unicode="&#xe08b;" glyph-name="icon-form-procedure" d="M992 48c0-44-36-80-80-80h-800c-44 0-80 36-80 80v288c0 44 36 80 80 80h800c44 0 80-36 80-80zM960 336c0 26-22 48-48 48h-800c-26 0-48-22-48-48v-288c0-26 22-48 48-48h800c26 0 48 22 48 48zM256 288v32h-96v-32h32v-192h-32v-32h96v32h-32v192zM858 692c-6 6-16 6-22 0l-68-84v256c0 36-28 64-64 64h-192c-10 0-16-6-16-16s6-16 16-16h192c20 0 32-12 32-32v-260l-68 78c-6 6-16 6-22 0s-6-16 0-22l110-122 108 128c4 10 0 18-6 26zM320 512h192c10 0 16 6 16 16s-6 16-16 16h-192c-20 0-32 12-32 32v256l68-76c6-8 16-8 22 0 6 6 6 16 0 22l-106 118-108-128c-8-6-4-16 2-22s16-6 22 0l68 82v-252c0-36 28-64 64-64z" />
<glyph unicode="&#xe08c;" glyph-name="icon-page-form-table" d="M224 928v-416h576v416zM448 544h-192v96h192zM448 672h-192v96h192zM608 544h-128v96h128zM608 672h-128v96h128zM768 544h-128v96h128zM768 672h-128v96h128zM768 800h-512v96h512zM992 48c0-44-36-80-80-80h-800c-44 0-80 36-80 80v288c0 44 36 80 80 80h800c44 0 80-36 80-80zM960 336c0 26-22 48-48 48h-800c-26 0-48-22-48-48v-288c0-26 22-48 48-48h800c26 0 48 22 48 48zM256 288v32h-96v-32h32v-192h-32v-32h96v32h-32v192z" />
<glyph unicode="&#xe08d;" glyph-name="icon-page-form-table-report" d="M646 640l70 86c8 6 4 16-2 22-6 8-16 4-22-2l-68-80-68 80c-6 6-16 6-22 2-6-6-6-16-2-22l70-86-70-86c-8-6-4-16 2-22 4-4 6-4 10-4s10 4 12 6l68 80 68-80c2-2 6-6 12-6 4 0 6 0 10 4 6 6 6 16 2 22zM480 736h-52l36 116c0 12 20 12 26 12h86c10 0 16 6 16 16s-6 16-16 16h-86c-30 0-52-12-58-36l-38-124h-74c-10 0-16-6-16-16s6-16 16-16h64l-48-166c-4-10 4-16 10-20h2c8 0 14 4 16 14l56 172h60c10 0 16 6 16 16s-6 16-16 16zM992 48c0-44-36-80-80-80h-800c-44 0-80 36-80 80v288c0 44 36 80 80 80h800c44 0 80-36 80-80zM960 336c0 26-22 48-48 48h-800c-26 0-48-22-48-48v-288c0-26 22-48 48-48h800c26 0 48 22 48 48zM256 288v32h-96v-32h32v-192h-32v-32h96v32h-32v192z" />
<glyph unicode="&#xe08e;" glyph-name="icon-region-native-jqm-column-toggle" d="M608 832h-192c-36 0-64-28-64-64v-672c0-36 28-64 64-64h192c36 0 64 28 64 64v672c0 36-28 64-64 64zM608 64h-192c-18 0-32 14-32 32v192h256v-192c0-18-14-32-32-32zM640 320h-256v224h256zM384 576v192c0 18 14 32 32 32h192c18 0 32-14 32-32v-192zM210 556c-6 6-16 6-22 0l-124-124 124-124c2-2 6-4 10-4s8 2 12 4c6 6 6 18 0 24l-100 100 100 100c6 6 6 18 0 24zM836 556c-6 6-16 6-22 0s-6-18 0-24l100-100-100-100c-6-6-6-18 0-24 4-2 8-4 12-4s8 2 10 4l124 124z" />
<glyph unicode="&#xe08f;" glyph-name="icon-login-password" d="M416 608c0-36-28-64-64-64s-64 28-64 64 28 64 64 64 64-28 64-64zM562 502c8 22 14 48 14 74 0 106-86 192-192 192s-192-86-192-192 86-192 192-192c20 0 38 2 56 8l72-72h64v-64h64v-64h64v-64h128v128zM800 160h-64v32c0 18-14 32-32 32h-32v32c0 18-14 32-32 32h-32v32c0 18-14 32-32 32h-50l-78 78c-20-10-42-14-64-14-88 0-160 72-160 160s72 160 160 160 160-72 160-160c0-30-8-58-22-82l278-252z" />
<glyph unicode="&#xe090;" glyph-name="icon-page-blank" d="M756 684l-104 104c-24 24-72 44-108 44h-256c-36 0-64-28-64-64v-640c0-36 28-64 64-64h448c36 0 64 28 64 64v448c0 36-20 84-44 108zM732 662c14-12 24-34 30-54h-154c-20 0-32 12-32 32v154c22-6 42-20 54-30zM768 128c0-20-12-32-32-32h-448c-20 0-32 12-32 32v640c0 20 12 32 32 32h256v-160c0-36 28-64 64-64h160z" />
<glyph unicode="&#xe091;" glyph-name="icon-page-data-loading" d="M800 352h-96l-32-32h128c20 0 32-12 32-32v-160c0-20-12-32-32-32h-608c-20 0-32 12-32 32v160c0 20 12 32 32 32h128l-32 32h-96c-36 0-64-28-64-64v-160c0-36 28-64 64-64h608c36 0 64 28 64 64v160c0 36-28 64-64 64zM268 532l228-228 228 228c6 6 6 16 0 22-8 6-16 6-24 0l-188-190v484c0 10-6 16-16 16s-16-6-16-16v-484l-188 190c-8 6-16 6-24 0-6-6-6-16 0-22z" />
<glyph unicode="&#xe092;" glyph-name="icon-page-feedback" d="M480 800c230 0 416-144 416-320 0-54-20-108-54-156l-10-14 6-16 64-166-176 84-12 6-14-6c-66-32-140-48-216-48-234-4-420 140-420 316s186 320 416 320zM480 832c-246 0-448-156-448-352s202-352 448-352c84 0 164 20 230 52l250-116-92 240c38 52 60 112 60 176 0 196-202 352-448 352zM544 480c0-36-28-64-64-64s-64 28-64 64 28 64 64 64 64-28 64-64zM320 480c0-36-28-64-64-64s-64 28-64 64 28 64 64 64 64-28 64-64zM768 480c0-36-28-64-64-64s-64 28-64 64 28 64 64 64 64-28 64-64z" />
<glyph unicode="&#xe093;" glyph-name="check-square-o" d="M740 636l-340-342-116 118c-6 6-18 6-24 0s-6-18 0-24l128-128c4-2 8-4 12-4s8 2 12 4l352 352c6 6 6 18 0 24s-18 6-24 0zM880 896h-736c-44 0-80-36-80-80v-736c0-44 36-80 80-80h736c44 0 80 36 80 80v736c0 44-36 80-80 80zM928 80c0-26-22-48-48-48h-736c-26 0-48 22-48 48v736c0 26 22 48 48 48h736c26 0 48-22 48-48z" />
<glyph unicode="&#xe094;" glyph-name="icon-page-form-master-detail" d="M992 48c0-44-36-80-80-80h-800c-44 0-80 36-80 80v288c0 44 36 80 80 80h800c44 0 80-36 80-80zM960 336c0 26-22 48-48 48h-800c-26 0-48-22-48-48v-288c0-26 22-48 48-48h800c26 0 48 22 48 48zM256 288v32h-96v-32h32v-192h-32v-32h96v32h-32v192zM288 576h-128v352h608v-192h-32v160h-544v-288h96zM480 544h-160v160h160zM352 576h96v96h-96zM672 544h-160v160h160zM544 576h96v96h-96zM864 544h-160v160h160zM736 576h96v96h-96z" />
<glyph unicode="&#xe095;" glyph-name="icon-page-multiple" d="M596 556l-104 104c-24 24-72 44-108 44h-192c-36 0-64-28-64-64v-512c0-36 28-64 64-64h384c36 0 64 28 64 64v320c0 36-20 84-44 108zM572 534c14-12 24-34 30-54h-154c-20 0-32 12-32 32v154c22-6 42-20 54-30zM608 128c0-20-12-32-32-32h-384c-20 0-32 12-32 32v512c0 20 12 32 32 32h192v-160c0-36 28-64 64-64h160zM852 684l-104 104c-24 24-72 44-108 44h-192c-36 0-64-28-64-64v-32c10 0 22 0 32-4v36c0 20 12 32 32 32h192v-160c0-36 28-64 64-64h160v-320c0-20-12-32-32-32h-160v-32h160c36 0 64 28 64 64v320c0 36-20 84-44 108zM704 608c-20 0-32 12-32 32v154c22-6 42-20 54-30l102-102c14-12 24-34 30-54z" />
<glyph unicode="&#xe096;" glyph-name="icon-page-wizard" d="M912 544c-58 0-102-42-108-96h-116c-10 90-84 160-176 160s-166-70-176-160h-116c-6 54-54 96-108 96-60 0-112-52-112-112s52-112 112-112c58 0 102 42 108 96h116c10-90 84-160 176-160s166 70 176 160h116c6-54 54-96 108-96 60 0 112 52 112 112s-52 112-112 112zM112 352c-44 0-80 36-80 80s36 80 80 80 80-36 80-80-36-80-80-80zM512 288c-80 0-144 64-144 144s64 144 144 144 144-64 144-144-64-144-144-144zM912 352c-44 0-80 36-80 80s36 80 80 80 80-36 80-80-36-80-80-80zM592 432c0-44-36-80-80-80s-80 36-80 80 36 80 80 80 80-36 80-80z" />
<glyph unicode="&#xe097;" glyph-name="icon-pkg-apps" d="M480 864c0 36-28 64-64 64h-320c-36 0-64-28-64-64v-320c0-36 28-64 64-64h320c36 0 64 28 64 64zM448 544c0-18-18-32-36-32h-320c-18 0-28 14-28 32v256h384zM64 832v32c0 18 10 32 28 32h320c18 0 36-14 36-32v-32zM928 416h-320c-36 0-64-28-64-64v-320c0-36 28-64 64-64h320c36 0 64 28 64 64v320c0 36-28 64-64 64zM960 32c0-18-18-32-36-32h-320c-18 0-28 14-28 32v320c0 18 10 32 28 32h320c18 0 36-14 36-32zM928 928h-320c-36 0-64-28-64-64v-320c0-36 28-64 64-64h320c36 0 64 28 64 64v320c0 36-28 64-64 64zM960 544c0-18-18-32-36-32h-320c-18 0-28 14-28 32v320c0 18 10 32 28 32h320c18 0 36-14 36-32zM416 416h-320c-36 0-64-28-64-64v-320c0-36 28-64 64-64h320c36 0 64 28 64 64v320c0 36-28 64-64 64zM448 32c0-18-18-32-36-32h-320c-18 0-28 14-28 32v320c0 18 10 32 28 32h320c18 0 36-14 36-32zM128 736h64v-64h-64zM224 736h64v-64h-64zM320 736h64v-64h-64zM128 640h64v-64h-64zM224 640h64v-64h-64zM320 640h64v-64h-64zM768 320c-70 0-128-42-128-96 0-28 16-54 42-72l-26-88 96 64v2c4-2 10-2 16-2 70 0 128 42 128 96s-58 96-128 96zM320 256c0-36-28-64-64-64s-64 28-64 64 28 64 64 64 64-28 64-64zM256 160c-48 0-88-38-110-96h220c-22 58-62 96-110 96zM640 650h64v-74h-64zM736 746h64v-170h-64zM832 842h64v-266h-64z" />
<glyph unicode="&#xe098;" glyph-name="icon-region-native-jstree" d="M928 32h-602c-4 0-6 2-6 6v154h608c8 0 16 8 16 16s-8 16-16 16h-608v192h256c36 0 64 28 64 64v256c0 36-28 64-64 64h-284c-2 0-4 2-4 4v28c0 36-28 64-64 64h-96c-36 0-64-28-64-64v-352c0-36 28-64 64-64h160v-372c0-24 20-44 44-44h596c8 0 16 8 16 16s-8 16-16 16zM128 864h96c18 0 32-14 32-32v-28c0-20 16-36 36-36h284c18 0 32-14 32-32v-256c0-18-14-32-32-32h-448c-18 0-32 14-32 32v352c0 18 14 32 32 32z" />
<glyph unicode="&#xe099;" glyph-name="icon-item-native-hidden" d="M266 270l22 22c-82 50-146 116-182 156 64 72 220 224 406 224 46 0 90-10 132-24l24 24c-48 20-100 32-156 32-218 0-392-188-448-256 32-40 104-118 202-178zM512 576c-70 0-128-58-128-128 0-18 4-34 10-50l168 168c-16 6-32 10-50 10zM730 644l178 176c6 6 6 18 0 24s-18 6-24 0l-184-186-24-24-560-558c-6-6-6-18 0-24 4-2 8-4 12-4s8 2 12 4l184 186c56-28 120-46 188-46 218 0 392 188 448 256-36 44-118 134-230 196zM512 224c-58 0-114 14-164 38l86 86c22-18 48-28 78-28 70 0 128 58 128 128 0 30-10 56-28 78l94 94c96-52 172-128 212-172-64-72-220-224-406-224z" />
<glyph unicode="&#xe09a;" glyph-name="icon-ui-desktop" d="M864 704v-384h-704v384h704zM896 736h-768v-448h768zM928 832h-832c-36 0-64-28-64-64v-512c0-36 28-64 64-64h298l-46-96h-60c-10 0-16-6-16-16s6-16 16-16h448c10 0 16 6 16 16s-6 16-16 16h-68l-44 96h304c36 0 64 28 64 68v508c0 36-28 64-64 64zM634 96h-250l44 96h160zM960 260c0-20-16-36-32-36h-832c-20 0-32 16-32 36v508c0 20 16 32 32 32h832c20 0 32-12 32-32z" />
<glyph unicode="&#xe09b;" glyph-name="icon-page-form-webservice" d="M992 48c0-44-36-80-80-80h-800c-44 0-80 36-80 80v288c0 44 36 80 80 80h800c44 0 80-36 80-80zM960 336c0 26-22 48-48 48h-800c-26 0-48-22-48-48v-288c0-26 22-48 48-48h800c26 0 48 22 48 48zM256 288v32h-96v-32h32v-192h-32v-32h96v32h-32v192zM592 896c60 0 112-52 112-112v-12l-6-42 42 6h12c44 0 80-36 80-80s-36-80-80-80h-496c-36 0-64 28-64 64s28 64 64 64c6 0 12 0 22-4l38-16 4 42c4 42 38 74 80 74 12 0 26-4 38-10l36-18 10 40c12 48 56 84 108 84zM592 928c-68 0-124-48-140-108-16 8-32 12-52 12-58 0-106-44-112-102-10 2-20 6-32 6-54 0-96-42-96-96s42-96 96-96h496c60 0 112 52 112 112s-52 112-112 112c-6 0-12 0-20-4 4 8 4 14 4 20 0 80-64 144-144 144z" />
<glyph unicode="&#xe09c;" glyph-name="icon-utilities-ui-defaults" d="M818 782l-102 100c-24 26-74 46-108 46h-384c-36 0-64-28-64-64v-864c0-36 28-64 64-64h576c36 0 64 28 64 64v672c0 36-20 84-46 110zM796 758c12-12 24-34 30-54h-154c-18 0-32 14-32 32v154c20-6 42-18 54-30zM832 0c0-18-14-32-32-32h-576c-18 0-32 14-32 32v864c0 18 14 32 32 32h384v-160c0-36 28-64 64-64h160zM352 486l-76 98c-6 6-4 16 2 22 8 6 18 4 22-2l52-66 116 146c4 8 14 10 22 4 6-6 8-16 2-22zM352 262l-76 98c-6 6-4 16 2 22 8 6 18 4 22-2l52-66 116 146c4 8 14 10 22 4 6-6 8-16 2-22zM352 38l-76 98c-6 6-4 16 2 22 8 6 18 4 22-2l52-66 116 146c4 8 14 10 22 4 6-6 8-16 2-22zM544 576h192v-32h-192zM544 352h192v-32h-192zM544 128h192v-32h-192z" />
<glyph unicode="&#xe09d;" glyph-name="icon-page-form-sql" d="M992 48c0-44-36-80-80-80h-800c-44 0-80 36-80 80v288c0 44 36 80 80 80h800c44 0 80-36 80-80zM960 336c0 26-22 48-48 48h-800c-26 0-48-22-48-48v-288c0-26 22-48 48-48h800c26 0 48 22 48 48zM256 288v32h-96v-32h32v-192h-32v-32h96v32h-32v192zM284 820c-12 6-28 12-48 12-8 0-16 0-24-4-8 0-14-2-20-6-6-6-12-10-16-16s-6-16-6-26c0-8 2-16 6-22 10-2 16-6 22-10 10-2 20-6 30-8 12-4 24-8 34-10 14-4 22-6 36-10 10-4 22-10 28-16 10-6 16-12 22-22 8-10 8-22 8-36 0-16-4-28-10-38s-16-20-26-26-22-12-36-16c-12-2-24-2-38-2-16 0-32 2-44 6-16 2-26 10-38 18-10 10-20 20-26 32-10 10-14 26-14 42h36c0-12 4-22 6-32 4-10 10-16 20-22 6-6 16-10 26-12 8-4 18-4 32-4 8 0 16 0 24 4 10 2 16 2 24 8 6 4 12 10 16 16 2 8 6 16 6 26s-4 20-6 26c-4 6-10 10-20 12-10 8-20 10-28 10-14 4-24 6-36 10-10 0-22 4-32 6-12 6-22 10-32 16-6 4-12 14-20 20-6 10-6 18-6 32 0 16 4 26 10 38 6 10 12 20 22 26s22 12 32 16c14 2 26 6 38 6 16 0 30-4 42-6 14-4 22-10 32-16s16-16 22-30c8-12 10-24 10-40h-34c-4 22-10 38-24 48zM592 580c-20-14-42-16-70-16-22 0-42 2-62 12-16 10-32 20-44 32s-20 28-26 48-10 38-10 58c0 18 4 38 10 58 6 18 16 34 26 48 12 12 26 24 44 32 20 8 42 12 64 12 24 0 42-4 62-12 16-10 32-20 44-32 14-14 20-30 26-48 6-20 10-40 10-58 0-22-4-42-10-64-6-20-20-38-32-52l38-28-26-26zM592 620c12 14 20 26 26 42s10 32 10 52c0 16-4 28-8 42-2 12-8 24-18 38-10 12-20 18-32 28-14 6-30 10-46 10s-32-4-44-10-22-16-32-28c-10-14-12-26-20-38-2-14-6-30-6-42 0-16 4-30 6-42 4-12 10-26 20-38 10-14 20-20 32-30 12-6 28-8 44-8 14 0 26 2 42 8l-32 26 20 22zM748 858v-256h154v-32h-192v288z" />
<glyph unicode="&#xe09e;" glyph-name="icon-page-form-summary" d="M820 684l-104 104c-24 24-72 44-108 44h-384c-36 0-64-28-64-64v-640c0-36 28-64 64-64h576c36 0 64 28 64 64v448c0 36-20 84-44 108zM796 662c14-12 24-34 30-54h-154c-20 0-32 12-32 32v154c22-6 42-20 54-30zM832 128c0-20-12-32-32-32h-576c-20 0-32 12-32 32v640c0 20 12 32 32 32h384v-160c0-36 28-64 64-64h160zM320 512h160v-32h-160zM544 512h160v-32h-160zM320 416h160v-32h-160zM544 416h160v-32h-160zM320 320h160v-32h-160zM544 320h160v-32h-160zM320 224h160v-32h-160zM544 224h160v-32h-160z" />
<glyph unicode="&#xe09f;" glyph-name="icon-ui-jqm" d="M336-32c-44 0-80 36-80 80v800c0 44 36 80 80 80h352c44 0 80-36 80-80v-800c0-44-36-80-80-80zM688 0c26 0 48 22 48 48v800c0 26-22 48-48 48h-352c-26 0-48-22-48-48v-800c0-26 22-48 48-48zM672 768v-608h-320v608h320zM672 800h-320c-20 0-32-16-32-32v-608c0-16 12-32 32-32h320c20 0 32 16 32 32v608c0 16-12 32-32 32zM544 64c0-18-14-32-32-32s-32 14-32 32 14 32 32 32 32-14 32-32zM544 832h-64c-10 0-16 6-16 16s6 16 16 16h64c10 0 16-6 16-16s-6-16-16-16z" />
<glyph unicode="&#xe0a0;" glyph-name="icon-page-global" d="M912 748l-102 104c-30 22-80 44-116 44h-256c-32 0-54-28-54-64v-132s0 4 32 4v128c0 20 6 32 26 32h266v-160c0-36 22-64 56-64h164v-448c0-20-22-32-38-32h-96c-6-10-14-22-22-32h118c34 0 70 28 70 64v448c0 36-26 84-48 108zM762 672c-20 0-26 12-26 32v154c0-6 38-16 52-30l98-102c14-12 22-22 30-54zM442 672c-118 0-224-52-292-132-48-56-76-128-76-204-4-186 162-336 368-336 204 0 368 150 368 336s-166 336-368 336zM704 524c42-48 68-108 70-172h-170c-2 42-8 84-22 118 46 16 86 36 122 54zM678 548c-32-16-66-32-108-46-20 52-48 96-70 132 70-10 134-42 178-86zM308 352c2 38 8 76 18 112 36-10 74-16 112-16s78 6 112 16c14-36 20-74 20-112zM572 320c-2-38-8-76-18-112-36 10-74 16-112 16s-78-6-112-16c-14 36-20 74-20 112zM442 640h18c24-28 58-80 84-144-32-6-68-12-102-12-36 0-70 6-102 12 24 64 60 116 82 144h20zM378 634c-26-36-52-80-70-132-42 14-78 30-110 46 48 44 112 76 180 86zM176 524c36-18 76-38 122-50-14-38-20-78-22-118h-170c2 60 28 120 70 168zM176 148c-42 48-68 108-70 172h170c2-42 8-84 22-118-46-16-86-36-122-54zM202 124c32 16 66 32 108 46 20-52 48-96 70-132-70 10-134 42-178 86zM442 32h-20c-22 28-58 80-82 144 32 6 66 12 102 12 34 0 70-6 102-12-26-64-60-116-84-144h-18zM502 38c26 36 52 80 70 132 42-14 78-30 110-46-48-44-112-76-180-86zM704 148c-36 18-76 38-122 50 14 38 20 78 22 118h170c-2-60-28-120-70-168z" />
<glyph unicode="&#xe0a1;" glyph-name="icon-page-report-webservice" d="M592 864c60 0 112-52 112-112v-12l-6-42 42 6h12c44 0 80-36 80-80s-36-80-80-80h-496c-36 0-64 28-64 64s28 64 64 64c6 0 12 0 22-4l38-16 4 42c4 42 38 74 80 74 12 0 26-4 38-10l36-18 10 40c12 48 56 84 108 84zM592 896c-68 0-124-48-140-108-16 8-32 12-52 12-58 0-106-44-112-102-10 2-20 6-32 6-54 0-96-42-96-96s42-96 96-96h496c60 0 112 52 112 112s-52 112-112 112c-6 0-12 0-20-4 4 8 4 14 4 20 0 80-64 144-144 144zM160 416v-416h704v416zM512 32h-320v96h320zM512 160h-320v96h320zM672 32h-128v96h128zM672 160h-128v96h128zM832 32h-128v96h128zM832 160h-128v96h128zM832 288h-640v96h640z" />
<glyph unicode="&#xe0a2;" glyph-name="apex-font-small-close" d="M576 448l186-186c18-18 18-44 0-64-20-18-46-18-64 0l-186 186-186-186c-18-18-44-18-64 0-18 20-18 46 0 64l186 186-180 186c-18 18-18 44 0 64 20 18 46 18 64 0l180-186 186 186c18 18 44 18 64 0 18-20 18-46 0-64z" />
<glyph unicode="&#xe0a3;" glyph-name="wrench" d="M978 180l-318 320c-22 22-32 54-26 90 18 102-16 206-88 278-50 48-110 80-178 90-54 8-110-12-150-50-6-6-10-14-10-24 0-8 4-16 10-22l152-152-120-118-152 150c-12 14-32 14-44 0-40-38-58-94-50-148 10-68 40-130 88-178 74-74 178-106 278-90 36 6 68-2 90-24l324-324c26-26 62-42 100-42 4 0 6 0 10 2 42 2 80 24 104 58 40 54 32 134-20 184zM946 34c-14-20-34-32-56-32-22-2-44 6-60 22l-324 322c-30 30-70 46-114 46-10 0-22 0-32-2-80-14-164 12-222 70-38 40-64 88-72 142-2 24 2 48 14 70l148-148c12-14 32-14 46 0l164 164c12 12 12 32 0 44l-150 150c22 10 46 16 70 12 54-8 104-32 142-72 58-58 84-140 72-222-10-56 6-108 42-146l320-318c28-28 34-74 12-102z" />
<glyph unicode="&#xe0a4;" glyph-name="icon-sc-app-computation" d="M928 576c18 0 32-14 32-32v-448c0-18-14-32-32-32h-384c-18 0-32 14-32 32v448c0 18 14 32 32 32h384zM928 608h-384c-36 0-64-28-64-64v-448c0-36 28-64 64-64h384c36 0 64 28 64 64v448c0 36-28 64-64 64zM576 512h320v-64h-320zM608 384h64v-64h-64zM704 384h64v-64h-64zM800 384h64v-64h-64zM608 288h64v-64h-64zM704 288h64v-64h-64zM800 288h64v-64h-64zM608 192h64v-64h-64zM704 192h64v-64h-64zM800 192h64v-64h-64zM448 448h-324c-18 0-28 14-28 32v256h512v-96h32v160c0 36-28 64-64 64h-448c-36 0-64-28-64-64v-320c0-36 28-64 64-64h320zM96 800c0 18 10 32 28 32h448c18 0 36-14 36-32v-32h-512z" />
<glyph unicode="&#xe0a5;" glyph-name="icon-go-to" d="M576 256h262l-170-170c-12-12-12-32 0-44 6-6 14-10 22-10 10 0 18 4 24 10l246 246-246 246c-14 14-34 14-46 0-12-12-12-32 0-44l170-170h-262c-248 0-448 200-448 448v32c0 18-14 32-32 32s-32-14-32-32v-32c0-282 230-512 512-512z" />
<glyph unicode="&#xe0a6;" glyph-name="irr-ws-col-lov" d="M384 768h512c18 0 32 14 32 32s-14 32-32 32h-512c-18 0-32-14-32-32s14-32 32-32zM896 512h-512c-18 0-32-14-32-32s14-32 32-32h512c18 0 32 14 32 32s-14 32-32 32zM896 192h-512c-18 0-32-14-32-32s14-32 32-32h512c18 0 32 14 32 32s-14 32-32 32zM192 800c0-54-42-96-96-96s-96 42-96 96 42 96 96 96 96-42 96-96zM192 480c0-54-42-96-96-96s-96 42-96 96 42 96 96 96 96-42 96-96zM192 160c0-54-42-96-96-96s-96 42-96 96 42 96 96 96 96-42 96-96z" />
<glyph unicode="&#xe0a7;" glyph-name="icon-sc-app-ite" d="M992 112c0-44-36-80-80-80h-544c-44 0-80 36-80 80v288c0 44 36 80 80 80h544c44 0 80-36 80-80zM960 400c0 26-22 48-48 48h-544c-26 0-48-22-48-48v-288c0-26 22-48 48-48h544c26 0 48 22 48 48zM512 352v32h-96v-32h32v-192h-32v-32h96v32h-32v192zM256 416h-164c-18 0-28 14-28 32v256h512v-192h32v256c0 36-28 64-64 64h-448c-36 0-64-28-64-64v-320c0-36 28-64 64-64h160zM64 768c0 18 10 32 28 32h448c18 0 36-14 36-32v-32h-512z" />
<glyph unicode="&#xe0a8;" glyph-name="icon-sc-authorization-scheme" d="M698-26l-154 150c-6 8-6 16 0 24 6 6 16 6 22 0l122-122 172 300c4 6 14 10 24 6 6-2 8-12 6-22zM716 352c0 22-18 48-40 58l-126 42c-10 2-22 18-26 28l-8 64c44 36 70 92 70 160 0 106-70 192-160 192s-160-86-160-192c0-68 28-124 70-160l-10-60c-2-14-12-26-26-30l-124-44c-22-6-42-36-42-58l-6-100 32-2 10 102c0 10 10 26 22 28l124 42c24 6 42 32 46 54l10 48c18-8 38-12 56-12 20 0 42 6 58 12l10-48c4-22 26-48 44-54l126-44c10-4 22-20 22-30l6-98 32 2zM298 704c0 90 58 164 130 164 74 0 132-74 132-164s-58-164-132-164c-72 0-130 74-130 164z" />
<glyph unicode="&#xe0a9;" glyph-name="icon-sc-build-option-off" d="M512 864c230 0 416-186 416-416s-186-416-416-416-416 186-416 416 186 416 416 416zM512 896c-246 0-448-202-448-448s202-448 448-448 448 202 448 448-202 448-448 448zM512 736c160 0 288-128 288-288s-128-288-288-288-288 128-288 288 128 288 288 288zM512 768c-176 0-320-144-320-320s144-320 320-320 320 144 320 320-144 320-320 320zM358 416c-18 0-38 16-38 32 0 20 16 32 38 32h310c20 0 40-12 40-32 0-16-16-32-40-32z" />
<glyph unicode="&#xe0aa;" glyph-name="icon-sc-tabs" d="M960 832h-896c-36 0-64-28-64-64v-640c0-36 28-64 64-64h896c36 0 64 28 64 64v640c0 36-28 64-64 64zM384 800h288v-160h-288zM992 128c0-20-12-32-32-32h-896c-20 0-32 12-32 32v640c0 20 12 32 32 32h288v-192h640zM992 640h-288v160h256c20 0 32-12 32-32z" />
<glyph unicode="&#xe0ab;" glyph-name="icon-sc-shortcut" d="M672 512h32v-32h-32zM928 64h32v-32h-32zM416 64h32v-32h-32zM800 512h32v-32h-32zM736 512h32v-32h-32zM864 512h32v-32h-32zM928 512h32v-32h-32zM928 448h32v-32h-32zM928 384h32v-32h-32zM928 320h32v-32h-32zM928 256h32v-32h-32zM928 192h32v-32h-32zM928 128h32v-32h-32zM864 64h32v-32h-32zM800 64h32v-32h-32zM736 64h32v-32h-32zM672 64h32v-32h-32zM608 64h32v-32h-32zM544 64h32v-32h-32zM480 64h32v-32h-32zM416 128h32v-32h-32zM416 192h32v-32h-32zM416 256h32v-32h-32zM416 320h32v-32h-32zM544 384h-448v448h512v-384l32-32v448h-576v-512h512zM784 400c-10 0-16-6-16-16v-138l-372 374c-6 8-16 8-22 0-6-6-6-16 0-22l372-374h-138c-10 0-16-6-16-16s6-16 16-16h192v192c0 10-6 16-16 16z" />
<glyph unicode="&#xe0ac;" glyph-name="icon-sc-security" d="M764 544h-28v64c0 122-102 224-224 224s-224-92-224-214v-74h-28c-40 0-68-28-68-68v-344c0-40 28-68 68-68h504c36 0 68 28 68 68v344c0 40-28 68-68 68zM320 618c0 98 86 182 192 182s192-86 192-192v-64h-64v68c0 70-58 128-128 128s-128-56-128-122v-74h-64zM608 544h-192v74c0 50 42 90 96 90 52 0 96-46 96-96zM800 132c0-20-16-36-36-36h-504c-20 0-36 16-36 36v344c0 20 16 36 36 36h508c20 0 32-16 32-36zM384 416h256v-32h-256zM384 320h256v-32h-256zM384 224h256v-32h-256z" />
<glyph unicode="&#xe0ad;" glyph-name="icon-sc-reports" d="M416 704h192v-32h-192zM416 608h192v-32h-192zM416 512h192v-32h-192zM832 352c20 0 32-12 32-32v-192c0-20-12-32-32-32h-640c-20 0-32 12-32 32v192c0 20 12 32 32 32h640zM832 384h-640c-36 0-64-28-64-64v-192c0-36 28-64 64-64h640c36 0 64 28 64 64v192c0 36-28 64-64 64zM736 224h64v-64h-64zM608 224h64v-64h-64zM320 416v352c0 20 12 32 32 32h320c20 0 32-12 32-32v-352h32v352c0 36-28 64-64 64h-320c-36 0-64-28-64-64v-352z" />
<glyph unicode="&#xe0ae;" glyph-name="icon-sc-nav-bar" d="M480 832h-192c-140 0-256-116-256-256 0-132 100-236 224-252v32c-108 16-192 108-192 220 0 124 100 224 224 224h192c124 0 224-100 224-224s-100-224-224-224h-128v-32h128c140 0 256 116 256 256s-116 256-256 256zM768 572v-32c108-16 192-108 192-220 0-124-100-224-224-224h-192c-124 0-224 100-224 224s100 224 224 224h128v32h-128c-140 0-256-116-256-256s116-256 256-256h192c140 0 256 116 256 256 0 132-100 236-224 252z" />
<glyph unicode="&#xe0af;" glyph-name="icon-sc-nav" d="M512 864c230 0 416-186 416-416s-186-416-416-416-416 186-416 416 186 416 416 416zM512 896c-246 0-448-202-448-448s202-448 448-448 448 202 448 448-202 448-448 448zM512 768c176 0 320-144 320-320s-144-320-320-320-320 144-320 320 144 320 320 320zM512 800c-196 0-352-156-352-352s156-352 352-352 352 156 352 352-156 352-352 352zM550 672c0-22-16-38-38-38s-38 16-38 38 16 38 38 38 38-16 38-38zM550 224c0-22-16-38-38-38s-38 16-38 38 16 38 38 38 38-16 38-38zM774 448c0-22-16-38-38-38s-38 16-38 38 16 38 38 38 38-16 38-38zM326 448c0-22-16-38-38-38s-38 16-38 38 16 38 38 38 38-16 38-38zM682 624l-208-116c-10-6-20-16-26-24l-116-208c-6-10-2-14 8-8l208 116c8 6 18 16 24 26l116 208c6 10 4 12-6 6zM512 410c-20 0-38 16-38 38 0 20 16 38 38 38s38-16 38-38c0-20-18-38-38-38z" />
<glyph unicode="&#xe0b0;" glyph-name="icon-sc-lov" d="M736 652l-74 74 20 20 54-54 54 54 20-20zM832 832h-640c-36 0-64-28-64-64v-640c0-36 28-64 64-64h640c36 0 64 28 64 64v640c0 36-28 64-64 64zM160 768c0 20 12 32 32 32h384v-192h-416zM864 128c0-20-12-32-32-32h-640c-20 0-32 12-32 32v128h704zM864 288h-704v128h704zM864 448h-704v128h704zM608 608v192h224c20 0 32-12 32-32v-160z" />
<glyph unicode="&#xe0b1;" glyph-name="icon-sc-logic" d="M512 576c70 0 128-58 128-128s-58-128-128-128-128 58-128 128 58 128 128 128zM512 608c-90 0-160-70-160-160s70-160 160-160 160 70 160 160-70 160-160 160zM512 864c20 0 38 0 58-4 12-28 22-64 32-104l2-16 16-8c8-2 14-2 16-6l16-6 16 10c36 22 68 42 96 50 32-22 58-50 80-80-12-28-28-60-50-96l-10-16 6-16c4-6 4-12 6-16l8-16 16-2c40-10 76-20 104-32 4-20 4-38 4-58s0-38-4-58c-28-12-64-22-104-32l-16-2-8-16c-2-8-2-14-6-16l-6-16 10-16c22-36 42-68 50-96-22-32-50-58-80-80-28 12-60 28-96 50l-16 10-16-6c-6-4-12-4-16-6l-16-8-2-16c-10-40-20-76-32-104-20-4-38-4-58-4s-38 0-58 4c-12 28-22 64-32 104l-2 16-16 8c-8 2-14 2-16 6l-16 6-16-10c-36-22-68-42-96-50-32 22-58 50-80 80 12 28 28 60 50 96l10 16-6 16c-4 6-4 12-6 16l-8 16-16 2c-40 10-76 20-104 32-4 20-4 38-4 58s0 38 4 58c28 12 64 22 104 32l16 2 8 16c2 8 2 14 6 16l6 16-10 16c-22 36-42 68-50 96 22 32 50 58 80 80 28-12 60-28 96-50l16-10 16 6c6 4 12 4 16 6l16 8 2 16c10 40 20 76 32 104 20 4 38 4 58 4zM512 896c-28 0-54-4-80-6-16-36-28-78-38-128-6-4-14-6-20-6-42 24-82 48-118 60-42-32-80-70-112-112 12-36 36-74 60-118-2-6-6-14-6-20-50-10-92-26-128-38-2-26-6-52-6-80s4-54 6-80c36-16 78-28 128-38 4-6 6-14 6-20-28-42-48-82-60-118 32-44 70-84 112-112 36 12 74 36 118 60 6-2 14-6 20-6 10-50 26-92 38-128 26-2 52-6 80-6s54 4 80 6c16 36 28 78 38 128 6 4 14 6 20 6 42-28 82-48 118-60 44 32 84 70 112 112-12 36-36 74-60 118 2 6 6 14 6 20 50 10 92 26 128 38 2 26 6 52 6 80s-4 54-6 80c-36 16-78 28-128 38-4 6-6 14-6 20 28 42 48 82 60 118-32 44-70 84-112 112-36-12-74-36-118-60-6 2-14 6-20 6-10 50-26 92-38 128-26 2-52 6-80 6z" />
<glyph unicode="&#xe0b2;" glyph-name="icon-sc-files" d="M896 800c20 0 32-12 32-32v-448c0-20-12-32-32-32h-320c-20 0-32 12-32 32v448c0 20 12 32 32 32h320zM896 832h-320c-36 0-64-28-64-64v-448c0-36 28-64 64-64h320c36 0 64 28 64 64v448c0 36-28 64-64 64zM640 704h192v-32h-192zM640 608h192v-32h-192zM640 512h192v-32h-192zM640 416h192v-32h-192zM736 224v-96c0-20-12-32-32-32h-576c-20 0-32 12-32 32v384c0 20 12 32 32 32h128c20 0 44-20 48-38v-4c12-48 60-86 112-86h64v32h-64c-36 0-70 28-80 60v4c-10 36-44 64-80 64h-128c-36 0-64-28-64-64v-384c0-36 28-64 64-64h576c36 0 64 28 64 64v96z" />
<glyph unicode="&#xe0b3;" glyph-name="icon-sc-build-option-on" d="M512 864c230 0 416-186 416-416s-186-416-416-416-416 186-416 416 186 416 416 416zM512 896c-246 0-448-202-448-448s202-448 448-448 448 202 448 448-202 448-448 448zM512 768c-176 0-320-144-320-320s144-320 320-320 320 144 320 320-144 320-320 320zM682 580l-182-320-152 150c-12 12-12 32 0 44 8 6 14 10 24 10 8 0 16-4 22-10l92-92 144 250c6 8 16 16 26 16 6 0 10 0 16-4 12-10 16-28 10-44z" />
<glyph unicode="&#xe0b4;" glyph-name="icon-sc-web-service" d="M674 416c76 0 136-60 136-136v-12l-2-4-4-44 42 8c6 0 10 2 16 2 54 0 98-44 98-100 0-54-44-98-98-98h-580c-44 0-80 36-80 80s36 80 80 80c10 0 18-2 28-6l40-14 4 42c4 52 46 90 96 90 16 0 32-4 46-12l38-20 10 40c14 62 68 104 130 104zM674 448c-78 0-144-54-162-128-18 10-40 16-62 16-68 0-122-52-128-120-12 6-26 8-40 8-62 0-112-50-112-112s50-112 112-112h580c72 0 130 58 130 130s-58 132-130 132c-8 0-14-2-22-2 2 6 2 12 2 20 0 92-74 168-168 168zM608 832c0 36-28 64-64 64h-448c-36 0-64-28-64-64v-320c0-36 28-64 64-64h448c36 0 64 28 64 64zM576 512c0-18-18-32-36-32h-448c-18 0-28 14-28 32v256h512zM64 800v32c0 18 10 32 28 32h448c18 0 36-14 36-32v-32z" />
<glyph unicode="&#xe0b5;" glyph-name="icon-util-apex-views" d="M944 252l-300 286-4-414 106 138 82-198 30 12-84 196zM400 832c-150 0-272-42-272-96v-448c0-54 122-96 272-96 64 0 124 10 176 26v32c-44-14-102-22-176-22-156-4-240 40-240 60v96c54-32 150-48 240-48 64 0 124 10 176 26v32c-44-14-102-22-176-22-122 0-208 24-240 54v118c54-32 150-48 240-48 64 0 124 10 176 26v32c-44-14-102-22-176-22-122 0-208 24-240 54v106c44-32 138-52 240-52s196 20 240 52v-84h32v128c0 54-122 96-272 96zM400 672c-156 0-240 44-240 64s84 64 240 64 240-44 240-64-84-64-240-64z" />
<glyph unicode="&#xe0b6;" glyph-name="icon-util-app-dashboard" d="M512 864c230 0 416-186 416-416s-186-416-416-416-416 186-416 416 186 416 416 416zM512 896c-246 0-448-202-448-448s202-448 448-448 448 202 448 448-202 448-448 448zM512 768c176 0 320-144 320-320s-144-320-320-320-320 144-320 320 144 320 320 320zM512 800c-196 0-352-156-352-352s156-352 352-352 352 156 352 352-156 352-352 352zM550 672c0-22-16-38-38-38s-38 16-38 38 16 38 38 38 38-16 38-38zM774 448c0-22-16-38-38-38s-38 16-38 38 16 38 38 38 38-16 38-38zM326 448c0-22-16-38-38-38s-38 16-38 38 16 38 38 38 38-16 38-38zM394 604c0-20-18-38-38-38-22 0-40 18-40 38 0 22 18 40 40 40 20 0 38-18 38-40zM708 604c0-20-18-38-40-38-20 0-38 18-38 38 0 22 18 40 38 40 22 0 40-18 40-40zM636 556c-6 8-16 4-22-2l-80-116c-6 4-12 4-18 4-36 0-64-30-64-64 0-36 28-64 64-64 34 0 64 28 64 64 0 16-8 32-16 44l80 112c0 6 0 16-8 22zM448 256h128v-64h-128z" />
<glyph unicode="&#xe0b7;" glyph-name="icon-util-change-history" d="M576 192h32v-64h-32zM434 186l-22 24 44 44 24-22zM352 384h64v-32h-64zM410 526l24 24 44-46-22-22zM750 550l24-24-46-44-22 22zM592 672c166 0 304-138 304-304s-138-304-304-304-304 138-304 304 138 304 304 304zM592 704c-186 0-336-150-336-336s150-336 336-336 336 150 336 336-150 336-336 336zM772 210l-22-24-46 46 24 22zM832 384h-224v224c0 10-6 16-16 16s-16-6-16-16v-256h256c10 0 16 6 16 16s-6 16-16 16zM588 950c-184-6-358-98-460-252v134c0 10-6 16-16 16s-16-6-16-16v-192h192c10 0 16 6 16 16s-6 16-16 16h-140c96 148 258 244 438 246 10 0 16 6 16 16s-6 16-14 16z" />
<glyph unicode="&#xe0b8;" glyph-name="icon-util-export-app" d="M528 80c-202 0-368 166-368 368s166 368 368 368 368-166 368-368-166-368-368-368zM528 48c220 0 400 180 400 400s-180 400-400 400-400-180-400-400 180-400 400-400zM356 538c-8-6-8-16 0-22 6-8 16-8 22 0l134 130v-442c0-8 6-16 16-16s16 8 16 16v442l132-130c6-8 16-8 22 0 2 2 2 6 2 12s0 10-2 12l-174 174z" />
<glyph unicode="&#xe0b9;" glyph-name="icon-util-export-repository" d="M326 294c-6-6-6-16 0-22s16-6 22 0l132 132v-442c0-10 6-16 16-16s16 6 16 16v444l134-130c6-8 16-8 22 0 4 2 8 6 8 12s0 10-4 12l-172 174zM756 684l-104 104c-24 24-72 44-108 44h-288c-36 0-64-28-64-64v-640c0-36 28-64 64-64h192v32h-192c-20 0-32 12-32 32v640c0 20 12 32 32 32h288v-160c0-36 28-64 64-64h160v-448c0-20-12-32-32-32h-192v-32h192c36 0 64 28 64 64v448c0 36-20 84-44 108zM608 608c-20 0-32 12-32 32v154c22-6 42-20 54-30l102-102c14-12 24-34 30-54z" />
<glyph unicode="&#xe0ba;" glyph-name="icon-util-import-app" d="M528 816c202 0 368-166 368-368s-166-368-368-368-368 166-368 368 166 368 368 368zM528 848c-220 0-400-180-400-400s180-400 400-400 400 180 400 400-180 400-400 400zM700 358c8 6 8 16 0 22-6 8-16 8-22 0l-134-130v442c0 8-6 16-16 16s-16-8-16-16v-442l-132 134c-6 6-16 6-22 0-6-4-6-10-6-12 0-4 0-10 4-14l172-172z" />
<glyph unicode="&#xe0bb;" glyph-name="icon-util-recent-pages" d="M916 748l-104 104c-24 24-72 44-108 44h-256c-36 0-64-28-64-64v-128h32v128c0 20 12 32 32 32h256v-160c0-36 28-64 64-64h160v-416c0-20-12-32-32-32h-156c-4-10-10-22-16-32h172c36 0 64 28 64 64v416c0 36-20 84-44 108zM768 672c-20 0-32 12-32 32v154c22-6 42-20 54-30l102-102c14-12 24-34 30-54zM400 640c166 0 304-138 304-304s-138-304-304-304-304 138-304 304 138 304 304 304zM400 672c-186 0-336-150-336-336s150-336 336-336 336 150 336 336-150 336-336 336zM384 160h32v-64h-32zM242 154l-22 24 44 44 24-22zM160 352h64v-32h-64zM218 494l24 24 44-46-22-22zM558 518l24-24-46-44-22 22zM580 178l-22-24-46 46 24 22zM640 352h-224v224c0 10-6 16-16 16s-16-6-16-16v-256h256c10 0 16 6 16 16s-6 16-16 16z" />
<glyph unicode="&#xe0bc;" glyph-name="icon-util-upgrade-app" d="M494-32c-128 4-246 58-334 152-86 94-132 216-128 344 4 118 50 226 128 310v-134h32v192h-192v-32h142c-88-90-138-208-142-334-4-136 44-268 138-368 92-100 220-162 356-162zM528 928c128-4 248-58 336-152 86-94 132-216 128-344-4-118-50-226-128-310v134h-32v-192h192v32h-140c86 90 136 208 140 334 4 136-44 268-138 368-92 100-220 156-356 162zM800 608c0 36-28 64-64 64h-448c-36 0-64-28-64-64v-320c0-36 28-64 64-64h448c36 0 64 28 64 64zM768 288c0-18-18-32-36-32h-448c-18 0-28 14-28 32v256h512zM256 576v32c0 18 10 32 28 32h448c18 0 36-14 36-32v-32z" />
<glyph unicode="&#xe0bd;" glyph-name="icon-util-debug-messages2" d="M640 480c0-22-18-42-42-42-22 0-42 20-42 42 0 24 20 42 42 42 24 0 42-18 42-42zM704 326c0-26-22-48-48-48s-48 22-48 48 22 48 48 48 48-22 48-48zM468 480c0-22-20-42-42-42-24 0-42 20-42 42 0 24 18 42 42 42 22 0 42-18 42-42zM416 326c0-26-22-48-48-48s-48 22-48 48 22 48 48 48 48-22 48-48zM1004 310l-80 96c-16 20-48 32-72 26l-60-10c-8 38-24 74-46 104 24 20 42 34 42 34 8 10 28 12 40 6l122-66c6-4 16-4 22 6 4 6 0 16-6 22l-122 68c-22 12-56 8-76-8l-44-34c-18 18-38 34-60 48 6 14 8 28 8 42 0 54-40 102-98 122 4 8 8 14 14 22 24 22 56 38 94 38 10 0 16 6 16 16s-6 16-16 16c-48 0-90-16-118-48-12-10-18-22-22-34-10 0-20 2-30 2-12 0-22-2-34-4-4 12-10 22-20 32-30 30-70 48-118 48-10 0-16-6-16-16s8-16 18-16c38 0 74-12 94-38l12-18c-58-20-96-68-96-122 0-14 2-28 8-42-22-12-42-30-60-48l-44 34c-20 16-54 20-76 8l-122-68c-6-4-10-12-6-22 2-10 12-14 22-6l122 66c12 6 32 4 40-2 0 0 18-16 44-34-22-32-38-66-48-104l-56 10c-26 2-58-8-74-26l-80-96c-6-6-2-16 4-22 2-4 6-4 10-4 2 0 8 4 12 6l80 96c6 6 26 14 42 14l56-10c0-12-2-24-2-36 0-30 4-60 14-88l-40-14c-22-10-48-32-58-54l-54-138c-2-10 0-16 10-20h6c6 0 14 4 16 10l54 138c8 12 24 32 40 36l38 12c44-100 144-170 262-170s218 70 262 170l38-12c14-8 32-24 40-36l54-140c2-8 10-10 16-10h6c10 2 12 12 10 18l-54 142c-10 22-32 44-58 54l-40 14c10 28 14 58 14 88 0 12 0 22-2 32l60 10c12 4 34-6 42-16l80-96c2-4 6-6 12-6 4 0 6 0 10 2 6 10 10 20 2 26zM384 640c0 58 58 102 128 102s128-48 128-102c0-8-2-14-4-22-38 18-80 28-124 28s-86-10-124-28c-2 8-4 14-4 22zM512 102c-32 0-60 6-88 16 36 28 68 62 88 100 22-38 52-72 88-100-26-10-56-16-88-16zM634 134c-50 32-88 76-110 128-2 14-22 14-28 0-20-54-58-98-108-128-78 44-132 128-132 224 0 142 116 256 256 256s256-114 256-256c0-96-54-180-134-224z" />
<glyph unicode="&#xe0be;" glyph-name="icon-util-attribute-dictionary" d="M452 516c-4 0-8 0-8 2-28 16-56 30-88 38-32 10-68 20-104 26-8 0-16 10-12 20 0 10 10 16 20 12 34-6 72-16 104-28 32-14 64-26 94-42 6-4 10-12 6-22 0-4-6-6-12-6zM452 324c-4 0-8 0-8 2-28 16-56 30-88 38-32 10-68 20-104 26-8 0-16 10-12 20 0 10 10 16 20 12 34-6 72-16 104-28 32-14 64-26 94-42 6-4 10-12 6-22 0-4-6-6-12-6zM912 820c-144-4-282-48-384-128-96 76-234 124-384 128h-16v-606h16c144-2 278-48 368-122l16-12 16 12c96 78 228 120 368 122h16v606zM160 244v544c138-8 266-52 352-122v-534c-92 66-218 108-352 112zM896 244c-132-8-256-46-352-116v534c92 74 218 116 352 122zM604 516c-6 0-8 2-12 8-4 8 0 16 6 24 30 16 62 28 94 40 34 14 70 24 104 30 10 2 16-4 20-14 0-8-4-16-12-18-36-6-72-16-104-26s-60-26-88-38c0-4-4-6-8-6zM604 324c-6 0-8 2-12 8-4 8 0 16 6 24 30 16 62 28 94 40 34 14 70 24 104 30 10 2 16-4 20-14 0-8-4-16-12-18-36-6-72-16-104-26s-60-26-88-38c0-4-4-6-8-6z" />
<glyph unicode="&#xe0bf;" glyph-name="icon-util-advisor" d="M672 608c158 0 288-130 288-288s-130-288-288-288-288 130-288 288 130 288 288 288zM672 640c-176 0-320-144-320-320s144-320 320-320 320 144 320 320-144 320-320 320zM656 148l-138 140c-8 6-8 18 0 24 6 8 18 8 24 0l106-106 150 266c6 8 16 10 26 6 8-6 10-16 6-24zM358 480h-230c-18 0-32 14-32 32v256h512v-102c10 2 22 4 32 4v162c0 36-28 64-64 64h-448c-36 0-64-28-64-64v-320c0-36 28-64 64-64h216c4 10 10 22 14 32zM96 832c0 18 14 32 32 32h448c18 0 32-14 32-32v-32h-512z" />
<glyph unicode="&#xe0c0;" glyph-name="icon-sc-component-settings" d="M704 352c-54 0-96-42-96-96s42-96 96-96 96 42 96 96-42 96-96 96zM704 192c-36 0-64 28-64 64s28 64 64 64 64-28 64-64-28-64-64-64zM352 672h-160c-8 0-16-8-16-16s8-16 16-16h160c8 0 16 8 16 16s-8 16-16 16zM352 576h-160c-8 0-16-8-16-16s8-16 16-16h160c8 0 16 8 16 16s-8 16-16 16zM480 592v176h-64v160h-96v-160h-96v160h-96v-160h-64v-176c0-110 84-200 192-208v-32c0-96-78-160-176-160h-16v-32h16c114 0 208 78 208 192v32c108 8 192 98 192 208zM352 896h32v-128h-32zM160 896h32v-128h-32zM272 416c-98 0-176 78-176 176v144h352v-144c0-98-78-176-176-176zM992 192v128l-88 12c-2 4-2 8-4 12l52 70-90 90-70-52c-4 2-8 2-12 4l-12 88h-128l-12-88c-4-2-8-2-12-4l-70 52-90-90 52-70c-2-4-2-8-4-12l-88-12v-128l88-12c2-4 2-8 4-12l-52-70 90-90 70 52c4-2 8-2 12-4l12-88h128l12 88c4 2 8 2 12 4l70-52 90 90-52 70c2 4 2 8 4 12zM882 208l-8-18c0-2-2-6-4-8l-8-18 12-14 36-50-50-50-50 36-14 12-18-8c-2-2-6-4-8-4l-18-8-4-18-8-60h-72l-8 60-4 18-18 8c-2 0-6 2-8 4l-18 8-14-12-50-36-50 50 36 50 12 14-8 18c-2 2-4 6-4 8l-8 18-18 4-60 8v72l60 8 18 4 8 18c0 2 2 6 4 8l8 18-12 14-36 50 50 50 50-36 14-12 18 8c2 2 6 4 8 4l18 8 4 18 8 60h70l10-60 2-18 18-8c4 0 8-2 10-4l18-8 14 12 50 36 50-50-36-50-12-14 8-18c2-2 4-6 4-8l8-18 18-4 60-8v-72l-60-8z" />
</font>
</defs>
</svg>
