<?xml version="1.0" standalone="no"?>
<!DOCTYPE svg PUBLIC "-//W3C//DTD SVG 1.1//EN" "http://www.w3.org/Graphics/SVG/1.1/DTD/svg11.dtd">
<svg xmlns="http://www.w3.org/2000/svg">
<metadata>Copyright Oracle</metadata>
<defs>
<font id="apex-5-icon-font" horiz-adv-x="1024" >
<font-face font-family="apex-5-icon-font" units-per-em="1024" ascent="960" descent="-64" />
<missing-glyph horiz-adv-x="1024" />
<glyph glyph-name="action" unicode="&#xe04c;" d="M832 768h-145l-150 181a33 33 0 0 1-50 0l-150-181h-145a64 64 0 0 1-64-64v-704a64 64 0 0 1 64-64h640a64 64 0 0 1 64 64v704a64 64 0 0 1-64 64z m-640-768v704h160a32 32 0 0 1 25 12l135 162 135-162a32 32 0 0 1 25-12h160v-704z m480 192h-320a32 32 0 0 1 0-64h320a32 32 0 0 1 0 64z m0 192h-320a32 32 0 0 1 0-64h320a32 32 0 0 1 0 64z m0 192h-320a32 32 0 0 1 0-64h320a32 32 0 0 1 0 64z" />
<glyph glyph-name="adjust" unicode="&#xe065;" d="M512 960a512 512 0 1 1 512-512 513 513 0 0 1-512 512z m-448-512a449 449 0 0 0 448 448v-896a449 449 0 0 0-448 448z" />
<glyph glyph-name="alert" unicode="&#xe0c5;" d="M560 384c0-26-21-48-48-48s-48 22-48 48 22 48 48 48 48-21 48-48z m208 576h-512c-71 0-128-57-128-128v-576c0-71 57-128 128-128h140l87-174c6-11 17-18 29-18s23 7 29 17l0 1 87 174h140c71 0 128 57 128 128v576c0 71-57 128-128 128z m64-704c0-35-29-64-64-64h-160c-12 0-23-7-28-17l-1-1-67-134-67 134c-6 11-17 18-29 18h-160c-35 0-64 29-64 64v576c0 35 29 64 64 64h512c35 0 64-29 64-64z m-320 256h0c17 0 31 13 32 29l0 0 16 192c0 1 0 2 0 3 0 18-14 32-32 32 0 0 0 0 0 0h-32c0 0 0 0 0 0-18 0-32-14-32-32 0-1 0-2 0-3l0 0 16-192c1-16 15-29 32-29h0z" />
<glyph glyph-name="aggregate" unicode="&#xe124;" d="M776 0h-528a56 56 0 0 0-44 90l273 349a15 15 0 0 1 0 18l-273 349a56 56 0 0 0 44 90h528a56 56 0 0 0 56-56v-104a32 32 0 0 0-64 0v96h-506l265-336a78 78 0 0 0 0-96l-262-336h503v96a32 32 0 0 0 64 0v-104a56 56 0 0 0-56-56z" />
<glyph glyph-name="align-left" unicode="&#xe1a3;" d="M32 704h576a32 32 0 0 1 0 64h-576a32 32 0 0 1 0-64z m0-192h960a32 32 0 0 1 0 64h-960a32 32 0 0 1 0-64z m960-320h-960a32 32 0 0 1 0-64h960a32 32 0 0 1 0 64z m-960 192a32 32 0 0 1 0-64h576a32 32 0 0 1 0 64z" />
<glyph glyph-name="align-center" unicode="&#xe1a2;" d="M224 704h576a32 32 0 0 1 0 64h-576a32 32 0 0 1 0-64z m-192-192h960a32 32 0 0 1 0 64h-960a32 32 0 0 1 0-64z m960-320h-960a32 32 0 0 1 0-64h960a32 32 0 0 1 0 64z m-768 192a32 32 0 0 1 0-64h576a32 32 0 0 1 0 64z" />
<glyph glyph-name="align-right" unicode="&#xe1a4;" d="M992 704h-576a32 32 0 0 0 0 64h576a32 32 0 0 0 0-64z m0-192h-960a32 32 0 0 0 0 64h960a32 32 0 0 0 0-64z m-960-320h960a32 32 0 0 0 0-64h-960a32 32 0 0 0 0 64z m960 192a32 32 0 0 0 0-64h-576a32 32 0 0 0 0 64z" />
<glyph glyph-name="angle-double-left" unicode="&#xe029;" d="M439 215l-234 233 234 233a32 32 0 0 1-46 46l-256-256a32 32 0 0 1 0-46l256-256a32 32 0 1 1 46 46z m146 256a32 32 0 0 1 0-46l256-256a32 32 0 0 1 46 46l-234 233 234 233a32 32 0 0 1-46 46z" />
<glyph glyph-name="angle-double-right" unicode="&#xe028;" d="M585 681l234-233-234-233a32 32 0 0 1 46-46l256 256a32 32 0 0 1 0 46l-256 256a32 32 0 0 1-46-46z m-146-256a32 32 0 0 1 0 46l-256 256a32 32 0 0 1-46-46l234-233-234-233a32 32 0 0 1 46-46z" />
<glyph glyph-name="angle-left" unicode="&#xe013;" d="M631 215l-234 233 234 233a32 32 0 0 1-46 46l-256-256a32 32 0 0 1 0-46l256-256a32 32 0 0 1 46 46z" />
<glyph glyph-name="angle-right" unicode="&#xe016;" d="M393 681l234-233-234-233a32 32 0 0 1 46-46l256 256a32 32 0 0 1 0 46l-256 256a32 32 0 0 1-46-46z" />
<glyph glyph-name="angle-up" unicode="&#xe012;" d="M745 329l-233 234-233-234a32 32 0 0 0-46 46l256 256a32 32 0 0 0 46 0l256-256a32 32 0 0 0-46-46z" />
<glyph glyph-name="area-chart" unicode="&#xe171;" d="M1004 766a32 32 0 0 1-35-7l-361-362-233 234a32 32 0 0 1-44 1l-267-240v408a32 32 0 0 1-64 0v-704a32 32 0 0 1 32-32h960a32 32 0 0 1 32 32v640a32 32 0 0 1-20 30z m-44-638h-896v178l287 258 234-235a32 32 0 0 1 46 0h0l329 330z" />
<glyph glyph-name="apex" unicode="&#xe054;" d="M262 461l45 46-230 229 147 147 72-73-41-41a24 24 0 1 1 34-34l41 41 62-62-41-41a24 24 0 1 1 34-34l41 41 28-27 45 46-252 252a32 32 0 0 1-46 0l-192-192a32 32 0 0 1 0-46z m501-26l-46-45 27-28-41-41a24 24 0 1 1 34-34l41 41 62-62-41-41a24 24 0 1 1 34-34l41 41 73-72-147-147-229 230-46-45 252-253a32 32 0 0 1 46 0l192 192a32 32 0 0 1 0 46z m225 489a123 123 0 0 1-173 0l-715-715a192 192 0 0 1-46-75l-52-156a32 32 0 0 1 30-42 28 28 0 0 1 10 2l156 52a192 192 0 0 1 75 46l715 715a123 123 0 0 1 0 173z m-760-842a127 127 0 0 0-50-31l-76-25-13 13 25 75a129 129 0 0 0 31 50l591 591 83-83z m715 714l-79-79-83 83 79 79a59 59 0 0 0 83-83z" />
<glyph glyph-name="area-chart-alt" unicode="&#xe168;" d="M1006 765l-128 64a32 32 0 0 1-39-9l-234-292-166 167a32 32 0 0 1-40 4l-335-223v324a32 32 0 0 1-64 0v-704a32 32 0 0 1 32-32h960a32 32 0 0 1 32 32v640a32 32 0 0 1-18 29z m-46-637h-797l195 244 231-174a32 32 0 0 1 33-3l338 169z m0 308l-349-175-240 181a32 32 0 0 1-44-6l-246-308h-17v271l348 232 173-174a32 32 0 0 1 25-9 32 32 0 0 1 23 12l240 300 87-44z" />
<glyph glyph-name="arrow-down" unicode="&#xe026;" d="M887 407a32 32 0 0 1-46 0l-297-298v755a32 32 0 0 1-64 0v-755l-297 298a32 32 0 0 1-46-46l352-352a32 32 0 0 1 46 0l352 352a32 32 0 0 1 0 46z" />
<glyph glyph-name="arrow-right" unicode="&#xe0c3;" d="M553 823a32 32 0 0 1 0-46l298-297h-755a32 32 0 0 1 0-64h755l-298-297a32 32 0 0 1 46-46l352 352a32 32 0 0 1 0 46l-352 352a32 32 0 0 1-46 0z" />
<glyph glyph-name="arrow-turn-down-right" unicode="&#xe0a5;" d="M951 183l-160 160a32 32 0 0 1-46-46l106-105h-403a320 320 0 0 0-320 320v352a32 32 0 0 1-64 0v-352a384 384 0 0 1 384-384h403l-106-105a32 32 0 0 1 46-46l160 160a32 32 0 0 1 0 46z" />
<glyph glyph-name="arrow-up" unicode="&#xe01a;" d="M137 489a32 32 0 0 1 46 0l297 298v-755a32 32 0 0 1 64 0v755l297-298a32 32 0 0 1 46 46l-352 352a32 32 0 0 1-46 0l-352-352a32 32 0 0 1 0-46z" />
<glyph glyph-name="arrow-down-bottom" unicode="&#xe021;" d="M489 73a32 32 0 0 1 46 0l352 352a32 32 0 0 1-46 46l-297-298v755a32 32 0 0 1-64 0v-755l-297 298a32 32 0 0 1-46-46z m375-73h-704a32 32 0 0 1 0-64h704a32 32 0 0 1 0 64z" />
<glyph glyph-name="arrow-up-small" unicode="&#xe008;" d="M265 489a32 32 0 0 1 46 0l169 170v-499a32 32 0 0 1 64 0v499l169-170a32 32 0 0 1 46 46l-224 224a32 32 0 0 1-46 0l-224-224a32 32 0 0 1 0-46z" />
<glyph glyph-name="arrow-up-top" unicode="&#xe064;" d="M535 823a32 32 0 0 1-46 0l-352-352a32 32 0 1 1 46-46l297 298v-755a32 32 0 0 1 64 0v755l297-298a32 32 0 1 1 46 46z m-375 73h704a32 32 0 0 1 0 64h-704a32 32 0 0 1 0-64z" />
<glyph glyph-name="asterisk-alt" unicode="&#xe058;" d="M699 652l-91 52 91 52a32 32 0 1 1-32 56l-91-53v105a32 32 0 0 1-64 0v-105l-91 53a32 32 0 1 1-32-56l91-52-91-52a32 32 0 0 1 16-60 32 32 0 0 1 16 4l91 53v-105a32 32 0 0 1 64 0v105l91-53a32 32 0 0 1 16-4 32 32 0 0 1 16 60z" />
<glyph glyph-name="arrows-h" unicode="&#xe104;" d="M1015 471l-192 192a32 32 0 1 1-46-46l138-137h-806l138 137a32 32 0 0 1-46 46l-192-192a32 32 0 0 1 0-46l192-192a32 32 0 0 1 46 46l-138 137h806l-138-137a32 32 0 0 1 0-46 32 32 0 0 1 23-9 32 32 0 0 1 23 9l192 192a32 32 0 0 1 0 46z" />
<glyph glyph-name="auto-complete" unicode="&#xe060;" d="M768 448c0-35-29-64-64-64s-64 29-64 64 29 64 64 64 64-29 64-64z m256 0c0-35-29-64-64-64s-64 29-64 64 29 64 64 64 64-29 64-64z m-716 286c-7 20-25 34-47 34-21 0-40-13-47-32v-1l-212-564c-1-3-2-7-2-11 0-14 9-25 21-30v0c3-1 7-2 11-2v0 0c14 0 25 9 30 21v0l64 171h263l61-171c4-12 16-21 30-21 18 0 32 14 32 32 0 4-1 8-2 11v0z m-158-350l111 294 105-294z m842-192h-320c-18 0-32-14-32-32s14-32 32-32h320c18 0 32 14 32 32s-14 32-32 32z" />
<glyph glyph-name="bar-chart" unicode="&#xe0e9;" d="M992 128h-32v224a32 32 0 0 1-32 32h-192a32 32 0 0 1-32-32v-224h-64v672a32 32 0 0 1-32 32h-192a32 32 0 0 1-32-32v-672h-64v480a32 32 0 0 1-32 32h-192a32 32 0 0 1-32-32v-480h-32a32 32 0 0 1 0-64h960a32 32 0 0 1 0 64z m-736 0h-128v448h128z m320 0h-128v640h128z m320 0h-128v192h128z" />
<glyph glyph-name="bar-chart-alt" unicode="&#xe128;" d="M992 704h-192c-19 0-32-13-32-32v-288h-160c-19 0-32-13-32-32v-224h-128v672c0 19-13 32-32 32h-192c-19 0-32-13-32-32v-288h-160c-19 0-32-13-32-32v-384c0-19 13-32 32-32h960c19 0 32 13 32 32v576c0 19-13 32-32 32z m-800-576h-128v320h128v-320z m192 0h-128v640h128v-640z m384 0h-128v192h128v-192z m192 0h-128v512h128v-512z" />
<glyph glyph-name="bar-chart-horizontal" unicode="&#xe16a;" d="M192-32v32h224a32 32 0 0 1 32 32v192a32 32 0 0 1-32 32h-224v64h672a32 32 0 0 1 32 32v192a32 32 0 0 1-32 32h-672v64h480a32 32 0 0 1 32 32v192a32 32 0 0 1-32 32h-480v32a32 32 0 0 1-64 0v-960a32 32 0 0 1 64 0z m0 736v128h448v-128z m0-320v128h640v-128z m0-320v128h192v-128z" />
<glyph glyph-name="bars" unicode="&#xe066;" d="M160 704h704a32 32 0 0 1 0 64h-704a32 32 0 0 1 0-64z m704-128h-704a32 32 0 0 1 0-64h704a32 32 0 0 1 0 64z m0-192h-704a32 32 0 0 1 0-64h704a32 32 0 0 1 0 64z m0-192h-704a32 32 0 0 1 0-64h704a32 32 0 0 1 0 64z" />
<glyph glyph-name="bold" unicode="&#xe908;" d="M676 492a223 223 0 0 1-132 404h-320a32 32 0 0 1 0-64h32v-768h-32a32 32 0 0 1 0-64h352a256 256 0 0 1 100 492z m-132 340a160 160 0 0 0 0-320h-224v320z m32-768h-256v384h256a192 192 0 0 0 0-384z" />
<glyph glyph-name="bolt" unicode="&#xe047;" d="M893 557a32 32 0 0 1-29 19h-251l121 341a32 32 0 0 1-53 33l-544-576a32 32 0 0 1 23-54h251l-121-341a32 32 0 0 1 30-43 32 32 0 0 1 23 10l544 576a32 32 0 0 1 6 35z m-492-457l85 241a32 32 0 0 1-30 43h-222l389 412-85-241a32 32 0 0 1 4-29 32 32 0 0 1 26-14h222z" />
<glyph glyph-name="bookmark" unicode="&#xe0f9;" d="M800 960h-576a32 32 0 0 1-32-32v-960a32 32 0 0 1 56-21l264 292 264-292a32 32 0 0 1 56 21v960a32 32 0 0 1-32 32z m-32-907l-232 256a32 32 0 0 1-48 0l-232-256v843h512z" />
<glyph glyph-name="box-arrow-in-ne" unicode="&#xe04d;" d="M638 352a32 32 0 0 1 64 0v256a32 32 0 0 1-32 32h-256a32 32 0 0 1 0-64h181l-330-329a32 32 0 0 1 46-46l327 328z m194 544h-640a128 128 0 0 1-128-128v-416a32 32 0 0 1 64 0v416a64 64 0 0 0 64 64h640a64 64 0 0 0 64-64v-640a64 64 0 0 0-64-64h-416a32 32 0 0 1 0-64h416a128 128 0 0 1 128 128v640a128 128 0 0 1-128 128z" />
<glyph glyph-name="box-plot-chart" unicode="&#xe188;" d="M416 576h-160v128h32a32 32 0 0 1 0 64h-128a32 32 0 0 1 0-64h32v-128h-160a32 32 0 0 1-32-32v-384a32 32 0 0 1 32-32h160v-128h-32a32 32 0 0 1 0-64h128a32 32 0 0 1 0 64h-32v128h160a32 32 0 0 1 32 32v384a32 32 0 0 1-32 32z m-32-384h-320v64h320z m0 128h-320v192h320z m608 448h-160v128h32a32 32 0 0 1 0 64h-128a32 32 0 0 1 0-64h32v-128h-160a32 32 0 0 1-32-32v-384a32 32 0 0 1 32-32h160v-128h-32a32 32 0 0 1 0-64h128a32 32 0 0 1 0 64h-32v128h160a32 32 0 0 1 32 32v384a32 32 0 0 1-32 32z m-32-384h-320v64h320z m0 128h-320v192h320z" />
<glyph glyph-name="breadcrumb" unicode="&#xe138;" d="M1018 467l-228 312a128 128 0 0 1-103 53h-623a64 64 0 0 1-64-64v-640a64 64 0 0 1 64-64h623a128 128 0 0 1 104 53l227 312a32 32 0 0 1 0 38z m-512 0l-219 301h177l232-320-232-320h-177l219 301a32 32 0 0 1 0 38z m-442 301h144l232-320-232-320h-144z m675-614a64 64 0 0 0-52-26h-144l219 301a32 32 0 0 1 0 38l-219 301h144a64 64 0 0 0 52-26l213-294z" />
<glyph glyph-name="bug" unicode="&#xe050;" d="M928 448h-160l0 128h0a128 128 0 0 1 128 128v160a32 32 0 0 1-64 0v-160a64 64 0 0 0-64-64h-65a192 192 0 1 1-384 0h-63a64 64 0 0 0-64 64v160a32 32 0 0 1-64 0v-160a128 128 0 0 1 128-128l0-128h-160a32 32 0 1 1 0-64h160a253 253 0 0 1 12-72 26 26 0 0 1-3-1l-99-100a127 127 0 0 1-37-89l-1-90a32 32 0 0 1 32-32h0a32 32 0 0 1 32 32l1 90a64 64 0 0 0 18 44l84 84a254 254 0 0 1 434 0l84-84a64 64 0 0 0 19-44l0-90a32 32 0 0 1 32-32h0a32 32 0 0 1 32 32l-1 90a127 127 0 0 1-37 89l-99 100a26 26 0 0 1-2 1 255 255 0 0 1 11 72h160a32 32 0 0 1 0 64z m-417 320a128 128 0 0 0 128-128h-256a128 128 0 0 0 128 128z m1-576a192 192 0 0 0-192 192l0 192h384l0-192a192 192 0 0 0-192-192z m0 288a32 32 0 0 1-32-32v-128a32 32 0 0 1 64 0v128a32 32 0 0 1-32 32z" />
<glyph glyph-name="bubble-chart" unicode="&#xe16b;" d="M992 128h-928v672a32 32 0 0 1-64 0v-704a32 32 0 0 1 32-32h960a32 32 0 0 1 0 64z m-608 192a128 128 0 1 1 128 128 128 128 0 0 1-128-128z m192 0a64 64 0 1 0-64 64 64 64 0 0 0 64-64z m-320 64a128 128 0 1 1-128 128 128 128 0 0 1 128-128z m0 192a64 64 0 1 0-64-64 64 64 0 0 0 64 64z m576-256a128 128 0 1 1-128 128 128 128 0 0 1 128-128z m0 192a64 64 0 1 0-64-64 64 64 0 0 0 64 64z m-288 0a160 160 0 1 1-160 160 160 160 0 0 1 160-160z m0 256a96 96 0 1 0-96-96 96 96 0 0 0 96 96z" />
<glyph glyph-name="bullet_s" unicode="&#xe13a;" d="M512 192a256 256 0 1 0 256 256 256 256 0 0 0-256-256z" />
<glyph glyph-name="button-hot" unicode="&#xe151;" d="M832 384h-640a192 192 0 0 1 0-384h640a192 192 0 0 1 0 384z m0-320h-640a128 128 0 0 0 0 256h640a128 128 0 0 0 0-256z m-565 388a32 32 0 0 1 12 44 169 169 0 0 0 4 176 230 230 0 0 1 95-96 32 32 0 0 1 42 10 336 336 0 0 1 60 193 287 287 0 0 1-2 31 267 267 0 0 0 129-219 32 32 0 0 1 54-22 335 335 0 0 1 76 105 270 270 0 0 0 31-125 276 276 0 0 0-8-62 32 32 0 0 1 24-38 31 31 0 0 1 8-1 32 32 0 0 1 31 25 329 329 0 0 1-71 293 32 32 0 0 1-56-14 265 265 0 0 0-36-85 326 326 0 0 1-216 228 32 32 0 0 1-40-40 272 272 0 0 0 12-77 272 272 0 0 0-33-129 163 163 0 0 0-58 91 32 32 0 0 1-21 23 32 32 0 0 1-31-7 233 233 0 0 1-50-292 32 32 0 0 1 44-12z" />
<glyph glyph-name="button" unicode="&#xe087;" d="M832 640h-640a192 192 0 0 1 0-384h640a192 192 0 0 1 0 384z m0-320h-640a128 128 0 0 0 0 256h640a128 128 0 0 0 0-256z" />
<glyph glyph-name="calculator" unicode="&#xe05d;" d="M768 960h-512a128 128 0 0 1-128-128v-768a128 128 0 0 1 128-128h512a128 128 0 0 1 128 128v768a128 128 0 0 1-128 128z m64-896a64 64 0 0 0-64-64h-512a64 64 0 0 0-64 64v576h640z m0 640h-640v128a64 64 0 0 0 64 64h512a64 64 0 0 0 64-64z m-512-242a50 50 0 1 1-50 50 50 50 0 0 1 50-50z m192 0a50 50 0 1 1-50 50 50 50 0 0 1 50-50z m192 0a50 50 0 1 1-50 50 50 50 0 0 1 50-50z m-384-192a50 50 0 1 1-50 50 50 50 0 0 1 50-50z m192 0a50 50 0 1 1-50 50 50 50 0 0 1 50-50z m192 0a50 50 0 1 1-50 50 50 50 0 0 1 50-50z m-192-192a50 50 0 1 1-50 50 50 50 0 0 1 50-50z m192 0a50 50 0 1 1-50 50 50 50 0 0 1 50-50z m-384 0a50 50 0 1 1-50 50 50 50 0 0 1 50-50z" />
<glyph glyph-name="calendar" unicode="&#xe137;" d="M320 512c35 0 64-29 64-64s-29-64-64-64-64 29-64 64 29 64 64 64z m192 0c35 0 64-29 64-64s-29-64-64-64-64 29-64 64 29 64 64 64z m192 0c35 0 64-29 64-64s-29-64-64-64-64 29-64 64 29 64 64 64z m-384-192c35 0 64-29 64-64s-29-64-64-64-64 29-64 64 29 64 64 64z m192 0c35 0 64-29 64-64s-29-64-64-64-64 29-64 64 29 64 64 64z m320 576h-64v32c0 18-14 32-32 32s-32-14-32-32v-32h-384v32c0 18-14 32-32 32s-32-14-32-32v-32h-64c-71 0-128-57-128-128v-640c0-71 57-128 128-128h640c71 0 128 57 128 128v640c0 71-57 128-128 128z m64-768c0-35-29-64-64-64h-640c-35 0-64 29-64 64v512h768z m0 576h-768v64c0 35 29 64 64 64h64v-32c0-18 14-32 32-32s32 14 32 32v32h384v-32c0-18 14-32 32-32s32 14 32 32v32h64c35 0 64-29 64-64z" />
<glyph glyph-name="caret-down" unicode="&#xe000;" d="M764 623a32 32 0 0 1-28 17h-448a32 32 0 0 1-26-50l224-320a32 32 0 0 1 52 0l224 320a32 32 0 0 1 2 33z m-252-279l-163 232h326z" />
<glyph glyph-name="caret-down_s" unicode="&#xe123;" d="M764 623a32 32 0 0 1-28 17h-448a32 32 0 0 1-26-50l224-320a32 32 0 0 1 52 0l224 320a32 32 0 0 1 2 33z" />
<glyph glyph-name="caret-left" unicode="&#xe0ee;" d="M687 196a32 32 0 0 1 17 28v448a32 32 0 0 1-50 26l-320-224a32 32 0 0 1 0-52l320-224a32 32 0 0 1 33-2z m-279 252l232 163v-326z" />
<glyph glyph-name="caret-left_s" unicode="&#xe002;" d="M687 196a32 32 0 0 1 17 28v448a32 32 0 0 1-50 26l-320-224a32 32 0 0 1 0-52l320-224a32 32 0 0 1 33-2z" />
<glyph glyph-name="caret-right" unicode="&#xe004;" d="M370 198l320 224a32 32 0 0 1 0 52l-320 224a32 32 0 0 1-50-26v-448a32 32 0 0 1 50-26z m14 87v326l232-163z" />
<glyph glyph-name="caret-right_s" unicode="&#xe126;" d="M370 198l320 224a32 32 0 0 1 0 52l-320 224a32 32 0 0 1-50-26v-448a32 32 0 0 1 50-26z" />
<glyph glyph-name="caret-up" unicode="&#xe005;" d="M762 306l-224 320a32 32 0 0 1-52 0l-224-320a32 32 0 0 1 26-50h448a32 32 0 0 1 26 50z m-87 14h-326l163 232z" />
<glyph glyph-name="caret-up_s" unicode="&#xe127;" d="M762 306l-224 320a32 32 0 0 1-52 0l-224-320a32 32 0 0 1 26-50h448a32 32 0 0 1 26 50z" />
<glyph glyph-name="check-circle" unicode="&#xe0d0;" d="M512-64a512 512 0 1 0 512 512 513 513 0 0 0-512-512z m0 960a448 448 0 1 1 448-448 449 449 0 0 1-448 448z m-96-640a32 32 0 0 0-23 9l-128 128a32 32 0 0 0 46 46l105-106 297 298a32 32 0 0 0 46-46l-320-320a32 32 0 0 0-23-9z" />
<glyph glyph-name="check" unicode="&#xe007;" d="M352 128a32 32 0 0 0-23 9l-256 256a32 32 0 0 0 46 46l233-234 553 554a32 32 0 0 0 46-46l-576-576a32 32 0 0 0-23-9z" />
<glyph glyph-name="check-circle_s" unicode="&#xe1ab;" d="M512 960a512 512 0 1 1 512-512 513 513 0 0 1-512 512z m247-375l-320-320a32 32 0 0 0-46 0l-128 128a32 32 0 0 0 46 46l105-106 297 298a32 32 0 0 0 46-46z" />
<glyph glyph-name="check-square" unicode="&#xe093;" d="M713 631l-297-298-105 106a32 32 0 0 1-46-46l128-128a32 32 0 0 1 46 0l320 320a32 32 0 0 1-46 46z m119 265h-640a128 128 0 0 1-128-128v-640a128 128 0 0 1 128-128h640a128 128 0 0 1 128 128v640a128 128 0 0 1-128 128z m64-768a64 64 0 0 0-64-64h-640a64 64 0 0 0-64 64v640a64 64 0 0 0 64 64h640a64 64 0 0 0 64-64z" />
<glyph glyph-name="checklist" unicode="&#xe13c;" d="M361 855l-233-234-73 74a32 32 0 0 1-46-46l96-96a32 32 0 0 1 46 0l256 256a32 32 0 0 1-46 46z m183-87h448a32 32 0 0 1 0 64h-448a32 32 0 0 1 0-64z m0-192h320a32 32 0 0 1 0 64h-320a32 32 0 0 1 0-64z m448-256h-448a32 32 0 0 1 0-64h448a32 32 0 0 1 0 64z m-128-192h-320a32 32 0 0 1 0-64h320a32 32 0 0 1 0 64z m-512 256h-320a32 32 0 0 1-32-32v-320a32 32 0 0 1 32-32h320a32 32 0 0 1 32 32v320a32 32 0 0 1-32 32z m-32-320h-256v256h256z" />
<glyph glyph-name="angle-down" unicode="&#xe0c2;" d="M745 567l-233-234-233 234a32 32 0 0 1-46-46l256-256a32 32 0 0 1 46 0l256 256a32 32 0 0 1-46 46z" />
<glyph glyph-name="angle-right-dupe" unicode="&#xe0d8;" d="M393 681l234-233-234-233a32 32 0 0 1 46-46l256 256a32 32 0 0 1 0 46l-256 256a32 32 0 0 1-46-46z" />
<glyph glyph-name="angle-left-dupe" unicode="&#xe0ca;" d="M631 215l-234 233 234 233a32 32 0 0 1-46 46l-256-256a32 32 0 0 1 0-46l256-256a32 32 0 0 1 46 46z" />
<glyph glyph-name="circle" unicode="&#xe14e;" d="M512 960a512 512 0 1 1 512-512 513 513 0 0 1-512 512z m0-960a448 448 0 1 0 448 448 449 449 0 0 0-448-448z" />
<glyph glyph-name="clock" unicode="&#xe108;" d="M512 960a512 512 0 1 1 512-512 513 513 0 0 1-512 512z m0-960a448 448 0 1 0 448 448 449 449 0 0 0-448-448z m32 461v275a32 32 0 0 1-64 0v-288a32 32 0 0 1 9-23l204-203a32 32 0 1 1 45 45z" />
<glyph glyph-name="clear" unicode="&#xe18c;" d="M896 832h-478a191 191 0 0 1-135-56l-251-251a109 109 0 0 1 0-154l251-251a191 191 0 0 1 135-56h478a128 128 0 0 1 128 128v512a128 128 0 0 1-128 128z m64-640a64 64 0 0 0-64-64h-478a127 127 0 0 0-90 38l-251 250a45 45 0 0 0 0 64l251 251a127 127 0 0 0 90 37h478a64 64 0 0 0 64-64z m-137 439a32 32 0 0 1-46 0l-137-138-137 138a32 32 0 0 1-46-46l138-137-138-137a32 32 0 0 1 46-46l137 138 137-138a32 32 0 0 1 46 46l-138 137 138 137a32 32 0 0 1 0 46z" />
<glyph glyph-name="clone" unicode="&#xe109;" d="M838 640h-262v1h-128a128 128 0 0 1-128-128v-384a128 128 0 0 1 128-128h384a128 128 0 0 1 128 128v384a128 128 0 0 1-122 127z m58-511a64 64 0 0 0-64-64h-384a64 64 0 0 0-64 64v384a64 64 0 0 0 64 64h384a64 64 0 0 0 64-64z m-768 255v384a64 64 0 0 0 64 64h384a64 64 0 0 0 64-64v-64h64v64a128 128 0 0 1-128 128h-384a128 128 0 0 1-128-128v-384a128 128 0 0 1 128-128h64v64h-64a64 64 0 0 0-64 64z" />
<glyph glyph-name="cloud" unicode="&#xe0d6;" d="M831 514h0a193 193 0 0 1-192 193 187 187 0 0 1-77-16 224 224 0 0 1-432-84 218 218 0 0 1 5-47 225 225 0 0 1 88-432h608a193 193 0 0 1 0 386z m0-322h-608a161 161 0 0 0-40 317 32 32 0 0 1 23 39c0 1-1 2-1 2a160 160 0 1 0 306 86 32 32 0 0 1 51-19 126 126 0 0 0 77 26 128 128 0 0 0 124-159 32 32 0 0 1 39-38 125 125 0 0 0 29 4 129 129 0 0 0 0-258h0z" />
<glyph glyph-name="code" unicode="&#xe130;" d="M416 128a31 31 0 0 0-10 2 32 32 0 0 0-20 40l192 576a32 32 0 0 0 60-20l-192-576a32 32 0 0 0-30-22z m-192 96a32 32 0 0 0-23 9l-192 192a32 32 0 0 0 0 46l192 192a32 32 0 0 0 46-46l-170-169 170-169a32 32 0 0 0-23-55z m576 0a32 32 0 0 0-23 55l170 169-170 169a32 32 0 0 0 46 46l192-192a32 32 0 0 0 0-46l-192-192a32 32 0 0 0-23-9z" />
<glyph glyph-name="code-block" unicode="&#xe909;" d="M278 450a31 31 0 0 1 10-2 32 32 0 0 1 30 22l128 384a32 32 0 1 1-60 20l-128-384a32 32 0 0 1 20-40z m-118 62a32 32 0 0 1 23 55l-106 105 106 105a32 32 0 0 1-46 46l-128-128a32 32 0 0 1 0-46l128-128a32 32 0 0 1 23-9z m361 9a32 32 0 0 1 46 0l128 128a32 32 0 0 1 0 46l-128 128a32 32 0 0 1-46-46l106-105-106-105a32 32 0 0 1 0-46z m311 375h-96a32 32 0 0 1 0-64h96a64 64 0 0 0 64-64v-640a64 64 0 0 0-64-64h-640a64 64 0 0 0-64 64v224a32 32 0 0 1-64 0v-224a128 128 0 0 1 128-128h640a128 128 0 0 1 128 128v640a128 128 0 0 1-128 128z" />
<glyph glyph-name="collapse-app" unicode="&#xe020;" d="M96 512h832a32 32 0 0 1 0 64h-832a32 32 0 0 1 0-64z m832-128h-832a32 32 0 0 1 0-64h832a32 32 0 0 1 0 64z m-439 265a32 32 0 0 1 46 0l192 192a32 32 0 0 1-46 46l-169-170-169 170a32 32 0 0 1-46-46z m46-402a32 32 0 0 1-46 0l-192-192a32 32 0 0 1 46-46l169 170 169-170a32 32 0 0 1 46 46z" />
<glyph glyph-name="column" unicode="&#xe10a;" d="M640 896h-256a64 64 0 0 1-64-64v-768a64 64 0 0 1 64-64h256a64 64 0 0 1 64 64v768a64 64 0 0 1-64 64z m-256-64h256v-66h-256z m0-768v638h256v-638z" />
<glyph glyph-name="column-check" unicode="&#xe070;" d="M1015 599a32 32 0 0 1-46 0l-201-202-73 74a32 32 0 0 1-46-46l96-96a32 32 0 0 1 46 0l224 224a32 32 0 0 1 0 46z m-567 297h-320a64 64 0 0 1-64-64v-768a64 64 0 0 1 64-64h320a64 64 0 0 1 64 64v768a64 64 0 0 1-64 64z m0-832h-320v640h320z m0 704h-320v64h320z" />
<glyph glyph-name="column-group" unicode="&#xe12a;" d="M864 960h64c18 0 32-14 32-32v-64c0-18-14-32-32-32h-64c-18 0-32 14-32 32v64c0 18 14 32 32 32z m-768 0h64c18 0 32-14 32-32v-64c0-18-14-32-32-32h-64c-18 0-32 14-32 32v64c0 18 14 32 32 32z m768-896h64c18 0 32-14 32-32v-64c0-18-14-32-32-32h-64c-18 0-32 14-32 32v64c0 18 14 32 32 32z m-768 0h64c18 0 32-14 32-32v-64c0-18-14-32-32-32h-64c-18 0-32 14-32 32v64c0 18 14 32 32 32z m640 576h-96v224c0 18-14 32-32 32h-320c-18 0-32-14-32-32v-576c0-18 14-32 32-32h96v-224c0-18 14-32 32-32h320c18 0 32 14 32 32v576c0 18-14 32-32 32z m-352-32v-288h-64v512h256v-192h-160c-18 0-32-14-32-32z m192-32v-256h-128v256z m128-512h-256v192h160c18 0 32 14 32 32v288h64z" />
<glyph glyph-name="columns" unicode="&#xe102;" d="M960 832h-896a64 64 0 0 1-64-64v-640a64 64 0 0 1 64-64h896a64 64 0 0 1 64 64v640a64 64 0 0 1-64 64z m0-128h-256v64h256z m-576 0v64h256v-64z m256-64v-512h-256v512z m-320 128v-64h-256v64z m-256-128h256v-512h-256z m896-544v32h-256v512h256v-512h0z" />
<glyph glyph-name="column-times" unicode="&#xe0f0;" d="M448 896h-320a64 64 0 0 1-64-64v-768a64 64 0 0 1 64-64h320a64 64 0 0 1 64 64v768a64 64 0 0 1-64 64z m-320-64h320v-66h-320z m0-768v638h320v-638z m717 352l106 105a32 32 0 0 1-46 46l-105-106-105 106a32 32 0 0 1-46-46l106-105-106-105a32 32 0 0 1 46-46l105 106 105-106a32 32 0 0 1 46 46z" />
<glyph glyph-name="combo-chart" unicode="&#xe16c;" d="M992 64h-32v480a32 32 0 0 1-32 32h-192a32 32 0 0 1-32-32v-480h-64v352a32 32 0 0 1-32 32h-192a32 32 0 0 1-32-32v-352h-64v224a32 32 0 0 1-32 32h-192a32 32 0 0 1-32-32v-224h-32a32 32 0 0 1 0-64h960a32 32 0 0 1 0 64z m-736 0h-128v192h128z m320 0h-128v320h128z m320 0h-128v448h128z m-800 414a32 32 0 0 1 12 2l761 315-44-106a32 32 0 0 1 17-41 32 32 0 0 1 13-3 32 32 0 0 1 29 20l74 177 0 1a31 31 0 0 1 0 23l0 1 0 0a31 31 0 0 1-7 10 34 34 0 0 1-5 4 29 29 0 0 1-5 3l-178 74a32 32 0 0 1-25-60l106-43-760-315a32 32 0 0 1 12-62z" />
<glyph glyph-name="comment" unicode="&#xe036;" d="M145 0a385 385 0 0 0-53 4 32 32 0 0 0-15 58 322 322 0 0 1 113 151 358 358 0 0 0-190 299c0 212 230 384 512 384s512-172 512-384c0-231-272-416-589-379a382 382 0 0 0-290-133z m367 832c-247 0-448-144-448-320a300 300 0 0 1 180-255 32 32 0 0 0 15-37 386 386 0 0 0-83-154 318 318 0 0 1 220 120 32 32 0 0 0 30 12c284-40 534 118 534 314 0 176-201 320-448 320z" />
<glyph glyph-name="comment-plus" unicode="&#xe062;" d="M704 512h-128v128a32 32 0 0 1-64 0v-128h-128a32 32 0 0 1 0-64h128v-128a32 32 0 0 1 64 0v128h128a32 32 0 0 1 0 64z m-160 384c-265 0-480-187-480-416a374 374 0 0 1 76-224 448 448 0 0 0-129-194 32 32 0 0 1 16-56 389 389 0 0 1 63-6 403 403 0 0 1 262 99 538 538 0 0 1 192-35c265 0 480 187 480 416s-215 416-480 416z m0-768a473 473 0 0 0-186 37 32 32 0 0 1-34-5 346 346 0 0 0-220-96 540 540 0 0 1 103 188 32 32 0 0 1-6 30 314 314 0 0 0-73 198c0 194 187 352 416 352s416-158 416-352-187-352-416-352z" />
<glyph glyph-name="components-view" unicode="&#xe052;" d="M960 832h-896a64 64 0 0 1-64-64v-128a64 64 0 0 1 64-64h896a64 64 0 0 1 64 64v128a64 64 0 0 1-64 64z m-896-192v128h896v-128z m256-128h-256a64 64 0 0 1-64-64v-320a64 64 0 0 1 64-64h256a64 64 0 0 1 64 64v320a64 64 0 0 1-64 64z m-256-384v320h256v-320z m576 384h-128a64 64 0 0 1-64-64v-320a64 64 0 0 1 64-64h128a64 64 0 0 1 64 64v320a64 64 0 0 1-64 64z m-128-384v320h128v-320z m448 384h-128a64 64 0 0 1-64-64v-320a64 64 0 0 1 64-64h128a64 64 0 0 1 64 64v320a64 64 0 0 1-64 64z m-128-384v320h128v-320z" />
<glyph glyph-name="commenting" unicode="&#xe05e;" d="M512 896c-282 0-512-172-512-384 7-129 81-240 188-298l2-1c-22-62-61-113-112-151l-1 0c-8-6-13-16-13-26 0-16 12-30 28-32l0 0c16-2 34-4 53-4l0 0c0 0 1 0 1 0 115 0 218 51 288 132l1 1c317-37 589 148 589 379 0 212-230 384-512 384z m-86-698c-2 1-3 1-5 1-10 0-19-5-25-12l0 0c-52-67-130-112-219-121l-1 0c38 43 67 94 82 152l1 2c1 3 1 6 1 9 0 12-7 22-16 28l-1 0c-100 45-171 141-179 254l0 1c0 176 201 320 448 320s448-144 448-320c0-196-250-354-534-314z m-42 314c0-35-29-64-64-64s-64 29-64 64 29 64 64 64 64-29 64-64z m192 0c0-35-29-64-64-64s-64 29-64 64 29 64 64 64 64-29 64-64z m192 0c0-35-29-64-64-64s-64 29-64 64 29 64 64 64 64-29 64-64z" />
<glyph glyph-name="compress" unicode="&#xe025;" d="M416 384h-256a32 32 0 0 1 0-64h179l-266-265a32 32 0 0 1 46-46l265 266v-179a32 32 0 0 1 64 0v256a32 32 0 0 1-32 32z m535 503a32 32 0 0 1-46 0l-265-266v179a32 32 0 0 1-64 0v-256a32 32 0 0 1 32-32h256a32 32 0 0 1 0 64h-179l266 265a32 32 0 0 1 0 46z" />
<glyph glyph-name="control-break" unicode="&#xe0ea;" d="M992 704h-960a32 32 0 0 0 0 64h960a32 32 0 0 0 0-64z m0-192h-448a32 32 0 0 0 0 64h448a32 32 0 0 0 0-64z m0-384h-448a32 32 0 0 0 0 64h448a32 32 0 0 0 0-64z m0 192h-448a32 32 0 0 0 0 64h448a32 32 0 0 0 0-64z" />
<glyph glyph-name="cube" unicode="&#xe195;" d="M943 700l-416 224a32 32 0 0 1-30 0l-416-224a32 32 0 0 1-17-28v-448a32 32 0 0 1 17-28v0l416-224a32 32 0 0 1 30 0l416 224v0a32 32 0 0 1 17 28v448a32 32 0 0 1-17 28z m-463-646l-352 189v375l352-189z m32 430l-348 188 348 188 349-188z m384-241l-352-189v375l352 189z" />
<glyph glyph-name="copy-down" unicode="&#xe19f;" d="M951 247a32 32 0 0 1-46 0l-137-138v371a32 32 0 0 1-64 0v-371l-137 138a32 32 0 0 1-46-46l192-192a32 32 0 0 1 46 0l192 192a32 32 0 0 1 0 46z m-599 585h-256a32 32 0 0 1-32-32v-704a32 32 0 0 1 32-32h256a32 32 0 0 1 32 32v704a32 32 0 0 1-32 32z m-32-320h-192v128h192z m0-192h-192v128h192z m0-192h-192v128h192z m0 576h-192v64h192z" />
<glyph glyph-name="database" unicode="&#xe04e;" d="M512 960c-46 0-448-4-448-128v-768c0-124 402-128 448-128s448 4 448 128v768c0 124-402 128-448 128z m-384-457c115-53 350-55 384-55s269 2 384 55l0-180c-13-24-153-67-384-67-230 0-369 42-384 67z m384 9c-230 0-369 42-384 67v180c115-53 350-55 384-55s269 2 384 55l0-180c-14-24-154-67-384-67z m0 384c222 0 359-39 382-64-23-24-160-64-382-64s-359 40-382 64c23 25 160 64 382 64z m0-896c-232 0-371 43-384 64v183c115-53 350-55 384-55s269 2 384 56l0-181c-13-24-152-67-384-67z" />
<glyph glyph-name="cubes" unicode="&#xe196;" d="M1004 478l-300 120v202a32 32 0 0 1-20 30l-320 128a32 32 0 0 1-24 0l-320-128a32 32 0 0 1-20-30v-352a32 32 0 0 1 20-30l300-120v-202a32 32 0 0 1 20-30l320-128a32 32 0 0 1 24 0l320 128a32 32 0 0 1 20 30v352a32 32 0 0 1-20 30z m-332-123l-234 93 234 94 234-94z m-32 243l-256-103v155l256 103z m-288 296l234-94-234-93-234 93z m-288-424v283l256-103v-283z m320-69l256-103v-283l-256 103z m320-386v283l256 103v-283z" />
<glyph glyph-name="delta" unicode="&#xe068;" d="M1020 48l-480 832a33 33 0 0 1-56 0l-480-832a32 32 0 0 1 28-48h960a32 32 0 0 1 28 48z m-604 585l328-569h-657z m402-569l-365 633 59 103 425-736z" />
<glyph glyph-name="details" unicode="&#xe05c;" d="M544 576h448a32 32 0 0 1 0 64h-448a32 32 0 0 1 0-64z m0 192h320a32 32 0 0 1 0 64h-320a32 32 0 0 1 0-64z m448-640h-448a32 32 0 0 1 0-64h448a32 32 0 0 1 0 64z m-448 128h320a32 32 0 0 1 0 64h-320a32 32 0 0 1 0-64z m-224 640h-256a64 64 0 0 1-64-64v-256a64 64 0 0 1 64-64h256a64 64 0 0 1 64 64v256a64 64 0 0 1-64 64z m-256-320v256h256v-256z m256-192h-256a64 64 0 0 1-64-64v-256a64 64 0 0 1 64-64h256a64 64 0 0 1 64 64v256a64 64 0 0 1-64 64z m-256-320v256h256v-256z" />
<glyph glyph-name="dial-gauge-chart" unicode="&#xe16d;" d="M718 638l-193-193c-4 2-8 3-13 3l0 0c0 0-1 0-1 0-36 0-65-29-65-65s29-65 65-65 65 29 65 65c0 9-2 17-5 25l0-1 189 189c5 5 8 13 8 20 0 17-13 30-30 30-8 0-15-3-20-8l0 0z m140-220c-19 0-34-15-34-34 0-19 15-34 34-34s34 15 34 34v0c0 19-15 34-34 34 0 0 0 0 0 0z m-686 0c-19 0-34-15-34-34s15-34 34-34 35 15 35 34c0 19-16 34-35 34z m377 309c0-19-15-34-34-34s-34 15-34 34 15 34 34 34 34-15 34-34z m-242-101c0-18-15-34-34-34s-35 16-35 34 16 35 35 35 34-16 34-35z m205 270c-283 0-512-229-512-512v0c0-3 0-5 1-8l0 0c3-145 65-275 163-367l1 0c5-6 13-9 21-9 8 0 15 3 20 7l0 0 122 94c22 17 49 27 79 27h210c30 0 57-10 79-27l0 0 122-95c5-4 12-6 20-6 8 0 16 3 21 8l0 0c102 94 165 228 165 376 0 283-229 512-511 512-1 0-1 0-1 0h0z m323-822l-100 78c-32 25-73 40-118 40h-210c-45 0-86-15-118-40l0 0-100-78c-77 80-124 188-124 308 0 1 0 1 0 2l0 0c0 3 0 5-1 8l0-1c2 246 202 445 448 445 247 0 448-201 448-448 0-2 0-3 0-4l0 0c0 0 0-1 0-2 0-119-48-228-125-308z" />
<glyph glyph-name="display-only" unicode="&#xe13e;" d="M416 640h576a32 32 0 0 1 0 64h-576a32 32 0 0 1 0-64z m576-128h-576a32 32 0 0 1 0-64h576a32 32 0 0 1 0 64z m0-192h-960a32 32 0 0 1 0-64h960a32 32 0 0 1 0 64z m0-192h-960a32 32 0 0 1 0-64h960a32 32 0 0 1 0 64z m-971 322a32 32 0 0 1 41 19l38 107h121l37-107a32 32 0 1 1 60 22l-106 305a55 55 0 0 1-103 0l-107-305a32 32 0 0 1 19-41z m177 190h-76l38 109z" />
<glyph glyph-name="donut-chart" unicode="&#xe16e;" d="M512 960a512 512 0 1 1 512-512 513 513 0 0 1-512 512z m192-512a192 192 0 1 0-192 192 192 192 0 0 0 192-192z m-192-448a448 448 0 0 0-32 894v-193a255 255 0 1 1 188-455l137-136a446 446 0 0 0-293-110z m338 155l-137 137a253 253 0 0 1-169 409v193a447 447 0 0 0 306-739z" />
<glyph glyph-name="dot-circle" unicode="&#xe006;" d="M512 960c-283 0-512-229-512-512s229-512 512-512 512 229 512 512c0 283-229 512-512 512z m0-960c-247 0-448 201-448 448s201 448 448 448 448-201 448-448c0-247-201-448-448-448z m256 448c0-141-115-256-256-256s-256 115-256 256 115 256 256 256 256-115 256-256z" />
<glyph glyph-name="download" unicode="&#xe0fb;" d="M992 256a32 32 0 0 1-32-32v-160a64 64 0 0 0-64-64h-768a64 64 0 0 0-64 64v160a32 32 0 0 1-64 0v-160a128 128 0 0 1 128-128h768a128 128 0 0 1 128 128v160a32 32 0 0 1-32 32z m-503 9a32 32 0 0 1 46 0l256 256a32 32 0 0 1-46 46l-201-202v563a32 32 0 0 1-64 0v-563l-201 202a32 32 0 0 1-46-46z" />
<glyph glyph-name="dynamic-content" unicode="&#xe12e;" d="M951 823l-128 128a32 32 0 0 1-46-46l74-73h-595a128 128 0 0 1-128-128v-352a32 32 0 0 1 64 0v352a64 64 0 0 0 64 64h595l-74-73a32 32 0 0 1 46-46l128 128a32 32 0 0 1 0 46z m-87-247a32 32 0 0 1-32-32v-352a64 64 0 0 0-64-64h-595l74 73a32 32 0 0 1-46 46l-128-128a32 32 0 0 1 0-46l128-128a32 32 0 1 1 46 46l-74 73h595a128 128 0 0 1 128 128v352a32 32 0 0 1-32 32z m-512-64h320a32 32 0 0 1 0 64h-320a32 32 0 0 1 0-64z m0-192h320a32 32 0 0 1 0 64h-320a32 32 0 0 1 0-64z" />
<glyph glyph-name="edit" unicode="&#xe049;" d="M928 448a32 32 0 0 1-32-32v-288a64 64 0 0 0-64-64h-640a64 64 0 0 0-64 64v640a64 64 0 0 0 64 64h288a32 32 0 0 1 0 64h-288a128 128 0 0 1-128-128v-640a128 128 0 0 1 128-128h640a128 128 0 0 1 128 128v288a32 32 0 0 1-32 32z m-91 448a122 122 0 0 1-86-36l-395-395a192 192 0 0 1-46-75l-52-156a32 32 0 0 1 30-42 31 31 0 0 1 10 2l156 52a192 192 0 0 1 75 46l395 395a123 123 0 0 1-87 209z m-353-559a128 128 0 0 0-50-31l-27-9-46 46 9 27a128 128 0 0 0 31 50l335 335 83-83z m395 395l-15-15-83 83 15 15a59 59 0 0 0 83-83z" />
<glyph glyph-name="envelope" unicode="&#xe02b;" d="M896 832h-768a128 128 0 0 1-128-128v-512a128 128 0 0 1 128-128h768a128 128 0 0 1 128 128v512a128 128 0 0 1-128 128z m64-640a64 64 0 0 0-64-64h-768a64 64 0 0 0-64 64v418l371-265a132 132 0 0 1 153 0l372 265z m0 496l-409-291a69 69 0 0 0-78 0l-409 291v16a64 64 0 0 0 64 64h768a64 64 0 0 0 64-64z" />
<glyph glyph-name="emoji-neutral" unicode="&#xe1a8;" d="M512 960c-283 0-512-229-512-512s229-512 512-512 512 229 512 512c0 283-229 512-512 512z m0-960c-247 0-448 201-448 448s201 448 448 448 448-201 448-448c0-247-201-448-448-448z m192 320h-384c-18 0-32-14-32-32s14-32 32-32h384c18 0 32 14 32 32s-14 32-32 32z m-320 256c0-35-29-64-64-64s-64 29-64 64 29 64 64 64 64-29 64-64z m384 0c0-35-29-64-64-64s-64 29-64 64 29 64 64 64 64-29 64-64z" />
<glyph glyph-name="exclamation-triangle_s" unicode="&#xe017;" d="M1008 198l-375 692a137 137 0 0 1-124 70 134 134 0 0 1-118-70l-375-692a134 134 0 0 1 118-198h756a134 134 0 0 1 118 198z m-496-38a48 48 0 1 0 48 48 48 48 0 0 0-48-48z m48 209a48 48 0 0 0-96 0v224a48 48 0 0 0 96 0z" />
<glyph glyph-name="exclamation-circle_s" unicode="&#xe027;" d="M512 960c-283 0-512-229-512-512s229-512 512-512c283 0 512 229 512 512v0c0 283-229 512-512 512h0z m0-768c-35 0-64 29-64 64s29 64 64 64c35 0 64-29 64-64v0c0-35-29-64-64-64v0z m64 256c0-35-29-64-64-64s-64 29-64 64v0 192c0 35 29 64 64 64s64-29 64-64v0z" />
<glyph glyph-name="expand" unicode="&#xe00f;" d="M160 0h256a32 32 0 0 1 0 64h-179l266 265a32 32 0 0 1-46 46l-265-266v179a32 32 0 0 1-64 0v-256a32 32 0 0 1 32-32z m425 521a32 32 0 0 1 46 0l265 266v-179a32 32 0 0 1 64 0v256a32 32 0 0 1-32 32h-256a32 32 0 0 1 0-64h179l-266-265a32 32 0 0 1 0-46z" />
<glyph glyph-name="expand-all" unicode="&#xe01f;" d="M96 896h832a32 32 0 0 0 0-64h-832a32 32 0 0 0 0 64z m832-896h-832a32 32 0 0 0 0 64h832a32 32 0 0 0 0-64z m-439 759a32 32 0 0 0 46 0l192-192a32 32 0 0 0-46-46l-169 170-169-170a32 32 0 0 0-46 46z m46-622a32 32 0 0 0-46 0l-192 192a32 32 0 0 0 46 46l169-170 169 170a32 32 0 0 0 46-46z" />
<glyph glyph-name="eye-slash" unicode="&#xe140;" d="M848 648l-45-45a713 713 0 0 0 150-155c-120-165-276-256-441-256a443 443 0 0 0-107 14l-51-52a512 512 0 0 1 158-26c193 0 373 107 506 302a32 32 0 0 1 0 36 790 790 0 0 1-170 182z m-327-327l-58-58a188 188 0 0 1 49-7 192 192 0 0 1 192 192 188 188 0 0 1-7 49l-58-57a127 127 0 0 0-118-119z m-291-110l-157-156a32 32 0 0 1 46-46l170 170 48 49 64 64 46 46 175 175 46 46 80 80 46 46 157 156a32 32 0 0 1-46 46l-170-170a524 524 0 0 1-223 51c-193 0-372-107-506-302a32 32 0 0 1 0-36 756 756 0 0 1 224-219z m172 173a127 127 0 0 0 175 174z m110 320a458 458 0 0 0 175-36l-64-64a190 190 0 0 1-111 36 192 192 0 0 1-192-192 190 190 0 0 1 36-111l-80-80a673 673 0 0 0-205 191c120 165 276 256 441 256z" />
<glyph glyph-name="eyedropper" unicode="&#xe063;" d="M1024 792a168 168 0 0 1-286 119l-194-194-41 42a32 32 0 0 1-46-46l42-41-330-330a192 192 0 0 1-51-89l-13-54a128 128 0 0 0-22-45l-77-103a32 32 0 0 1 3-42l64-64a32 32 0 0 1 42-3l103 77a128 128 0 0 0 45 22l54 13a192 192 0 0 1 89 51l330 330 41-42a32 32 0 0 1 46 46l-42 41 194 194a166 166 0 0 1 49 118z m-663-642a128 128 0 0 0-60-34l-53-13a191 191 0 0 1-69-33l-80-60-24 25 59 80a192 192 0 0 1 33 69l13 54a128 128 0 0 0 34 59l42 42 41-42a32 32 0 1 1 46 46l-42 41 115 115 41-42a32 32 0 0 1 46 46l-42 41 83 83 147-147z m569 569l-194-194-147 147 194 194a103 103 0 0 0 73 30h0a104 104 0 0 0 74-177z" />
<glyph glyph-name="field" unicode="&#xe00a;" d="M256 320h-32a32 32 0 0 1 0-64h32a127 127 0 0 1 96 44 127 127 0 0 1 96-44h32a32 32 0 0 1 0 64h-32a64 64 0 0 0-64 64v128a64 64 0 0 0 64 64h32a32 32 0 0 1 0 64h-32a127 127 0 0 1-96-44 127 127 0 0 1-96 44h-32a32 32 0 0 1 0-64h32a64 64 0 0 0 64-64v-128a64 64 0 0 0-64-64z m704 512h-896a64 64 0 0 1-64-64v-640a64 64 0 0 1 64-64h896a64 64 0 0 1 64 64v640a64 64 0 0 1-64 64z m0-704h-896v640h896z" />
<glyph glyph-name="file" unicode="&#xe00d;" d="M887 695l-256 256a32 32 0 0 1-23 9h-416a64 64 0 0 1-64-64v-896a64 64 0 0 1 64-64h640a64 64 0 0 1 64 64v672a32 32 0 0 1-9 23z m-247 156l147-147h-147z m192-851h-640v896h384v-192a64 64 0 0 1 64-64h192z" />
<glyph glyph-name="file-browse" unicode="&#xe13f;" d="M960 704h-504a65 65 0 0 0-45 18l-72 72a129 129 0 0 1-91 38h-184a64 64 0 0 1-64-64v-640a64 64 0 0 1 64-64h224a32 32 0 0 1 0 64h-224v640h184a65 65 0 0 0 46-19l71-72a129 129 0 0 1 91-37h504v-512l-184 0a64 64 0 0 0-46 18l-126 127a193 193 0 1 1-45-45l126-127a129 129 0 0 1 90-37l185 0a64 64 0 0 1 64 64v512a64 64 0 0 1-64 64z m-640-320a128 128 0 1 0 128-128 128 128 0 0 0-128 128z" />
<glyph glyph-name="fill" unicode="&#xe18d;" d="M1015 375l-448 447a192 192 0 0 1-375-54v-275l-160-160a109 109 0 0 1 0-154l211-211a109 109 0 0 1 154 0l334 333a65 65 0 0 0 45 19h56v-288a96 96 0 0 1 192 0v320a32 32 0 0 1-9 23z m-759 393a128 128 0 0 0 250 38l-250-249z m520-384a129 129 0 0 1-91-37l-333-334a47 47 0 0 0-64 0l-211 211a45 45 0 0 0 0 64l435 435v-355a32 32 0 0 1 64 0v355l339-339z m184-352a32 32 0 0 0-64 0v288h64z" />
<glyph glyph-name="filter" unicode="&#xe0f4;" d="M1021 942a32 32 0 0 1-29 18h-960a32 32 0 0 1-26-51l352-470a128 128 0 0 0 26-76v-267a32 32 0 0 1 14-27l192-128a32 32 0 0 1 18-5 32 32 0 0 1 15 4 32 32 0 0 1 17 28v395a129 129 0 0 0 26 77l352 469a32 32 0 0 1 3 33z m-407-464a193 193 0 0 1-38-115v-335l-128 85v250a193 193 0 0 1-38 115l-314 418h832z" />
<glyph glyph-name="folder" unicode="&#xe0da;" d="M960 704h-504a65 65 0 0 0-45 19l-72 72a129 129 0 0 1-91 37h-184a64 64 0 0 1-64-64v-640a64 64 0 0 1 64-64h896a64 64 0 0 1 64 64v512a64 64 0 0 1-64 64z m-712 64a65 65 0 0 0 46-19l71-71a129 129 0 0 1 91-38h504v-64h-896v192z m-184-640v384h896v-384z" />
<glyph glyph-name="folder-open" unicode="&#xe0d7;" d="M1016 501a32 32 0 0 1-24 11h-32v128a64 64 0 0 1-64 64h-389a32 32 0 0 0-23 9l-91 91a95 95 0 0 1-67 28h-198a64 64 0 0 1-64-64v-256h-32a32 32 0 0 1-24-11 32 32 0 0 1-8-26l60-358a64 64 0 0 1 63-53h778a64 64 0 0 1 63 54l60 357a32 32 0 0 1-8 26z m-888 267h198a32 32 0 0 0 22-9l91-91a95 95 0 0 1 68-28h389v-128h-768z m773-640h-778l-53 320h884z" />
<glyph glyph-name="flashlight" unicode="&#xe06a;" d="M1010 379l-152 101c-30 20-66 32-106 32 0 0 0 0 0 0h-14c0 0 0 0 0 0-35 0-67 14-90 38l-362 361c-30 30-72 49-118 49-93 0-168-75-168-168v0 0c0 0 0 0 0 0 0-46 19-88 49-118l362-362c23-23 37-55 37-90 0 0 0 0 0 0v0-14c0 0 0 0 0 0 0-40 12-76 32-107l0 1 101-152c5-8 14-13 24-14l0 0h3 0c9 0 17 4 23 9l384 384c5 6 9 14 9 23 0 1 0 2 0 3l0 0c-1 10-6 18-14 24l0 0z m-916 340c-18 19-30 45-30 73 0 58 47 104 104 104 28 0 54-12 73-30l354-354-147-147z m519-701l-79 119c-14 20-22 45-22 71 0 0 0 0 0 1v-1 14c0 34-9 66-25 93l0-1 159 159c27-16 58-25 92-25h14 0c26 0 51-8 71-22l0 1 119-80z m-165 526c0-18-14-32-32-32s-32 14-32 32 14 32 32 32 32-14 32-32z" />
<glyph glyph-name="folder-open_s" unicode="&#xe0d9;" d="M960 576v64a64 64 0 0 1-64 64h-389a32 32 0 0 0-23 9l-91 91a95 95 0 0 1-67 28h-198a64 64 0 0 1-64-64v-192z m32-64h-960a32 32 0 0 1-24-11 32 32 0 0 1-8-26l60-358a64 64 0 0 1 63-53h778a64 64 0 0 1 63 54l60 357a32 32 0 0 1-32 37z" />
<glyph glyph-name="folder_s" unicode="&#xe0d1;" d="M0 512v-384a64 64 0 0 1 64-64h896a64 64 0 0 1 64 64v384z m1024 64v64a64 64 0 0 1-64 64h-504a65 65 0 0 0-45 19l-72 72a129 129 0 0 1-91 37h-184a64 64 0 0 1-64-64v-192z" />
<glyph glyph-name="function" unicode="&#xe134;" d="M512 832a127 127 0 0 0 77-26 32 32 0 0 1 38 51 190 190 0 0 1-115 39 192 192 0 0 1-192-192v-192h-96a32 32 0 0 1 0-64h96v-192a127 127 0 0 0-205-102 32 32 0 1 1-38-51 190 190 0 0 1 115-39 192 192 0 0 1 192 192v192h96a32 32 0 0 1 0 64h-96v192a128 128 0 0 0 128 128z m298-544l143 172a32 32 0 1 1-50 41l-135-163-135 163a32 32 0 0 1-50-41l143-172-143-171a32 32 0 1 1 50-41l135 162 135-162a32 32 0 1 1 50 41z" />
<glyph glyph-name="frown" unicode="&#xe1a9;" d="M384 576c0-35-29-64-64-64s-64 29-64 64 29 64 64 64 64-29 64-64z m384 0c0-35-29-64-64-64s-64 29-64 64 29 64 64 64 64-29 64-64z m-256 384c-283 0-512-229-512-512s229-512 512-512 512 229 512 512c0 283-229 512-512 512z m0-960c-247 0-448 201-448 448s201 448 448 448 448-201 448-448c0-247-201-448-448-448z m0 384c-1 0-1 0-2 0-88 0-167-43-215-109l-1 0c-4-5-6-12-6-19 0-18 14-32 32-32 11 0 20 5 26 13l0 0c38 51 98 83 166 83s128-32 166-82l0-1c6-8 15-13 26-13 18 0 32 14 32 32 0 7-2 14-6 19l0 0c-49 66-127 109-216 109 0 0-1 0-2 0l0 0z" />
<glyph glyph-name="gantt-axis-major" unicode="&#xe1a0;" d="M992 576h-960a32 32 0 0 1-32-32v-192a32 32 0 0 1 64 0v160h256v-160a32 32 0 0 1 64 0v160h256v-160a32 32 0 0 1 64 0v160h256v-160a32 32 0 0 1 64 0v192a32 32 0 0 1-32 32z" />
<glyph glyph-name="funnel-chart" unicode="&#xe16f;" d="M1021 879a32 32 0 0 1-29 17h-960a32 32 0 0 1-26-51l282-393a257 257 0 0 0 44-107l53-318a32 32 0 0 1 31-27h192a32 32 0 0 1 32 27l53 318a257 257 0 0 0 44 107l281 393a32 32 0 0 1 3 34z m-440-815h-138l-32 192h202z m104 425a322 322 0 0 1-55-133l-6-36h-224l-5 36a322 322 0 0 1-56 133l-62 87h470z m108 151h-562l-137 192h836z" />
<glyph glyph-name="gantt-axis-minor" unicode="&#xe1a1;" d="M992 704h-960a32 32 0 0 1-32-32v-192a32 32 0 0 1 64 0v160h256v-160a32 32 0 0 1 64 0v160h256v-160a32 32 0 0 1 64 0v160h256v-160a32 32 0 0 1 64 0v192a32 32 0 0 1-32 32z m-384-384a32 32 0 0 1-32-32v-64a32 32 0 0 1 64 0v64a32 32 0 0 1-32 32z m192 0a32 32 0 0 1-32-32v-64a32 32 0 0 1 64 0v64a32 32 0 0 1-32 32z m192 0a32 32 0 0 1-32-32v-64a32 32 0 0 1 64 0v64a32 32 0 0 1-32 32z m-960 0a32 32 0 0 1-32-32v-64a32 32 0 0 1 64 0v64a32 32 0 0 1-32 32z m192 0a32 32 0 0 1-32-32v-64a32 32 0 0 1 64 0v64a32 32 0 0 1-32 32z m192 0a32 32 0 0 1-32-32v-64a32 32 0 0 1 64 0v64a32 32 0 0 1-32 32z" />
<glyph glyph-name="forms" unicode="&#xe131;" d="M864 0h-128a96 96 0 0 0 0 192h128a96 96 0 0 0 0-192z m-128 128a32 32 0 0 1 0-64h128a32 32 0 0 1 0 64z m-256-128h-128a96 96 0 0 0 0 192h128a96 96 0 0 0 0-192z m-128 128a32 32 0 0 1 0-64h128a32 32 0 0 1 0 64z m576 128h-832a32 32 0 0 0-32 32v320a32 32 0 0 0 32 32h832a32 32 0 0 0 32-32v-320a32 32 0 0 0-32-32z m-800 64h768v256h-768z m800 384h-832a32 32 0 0 0-32 32v128a32 32 0 0 0 32 32h832a32 32 0 0 0 32-32v-128a32 32 0 0 0-32-32z m-800 64h576v64h-576z m640 0h128v64h-128z" />
<glyph glyph-name="gantt-chart" unicode="&#xe170;" d="M512 672v192a32 32 0 0 1-32 32h-416v32a32 32 0 0 1-64 0v-960a32 32 0 0 1 64 0v672h416a32 32 0 0 1 32 32z m-64 32h-384v128h384z m320-352v192a32 32 0 0 1-32 32h-448a32 32 0 0 1-32-32v-192a32 32 0 0 1 32-32h448a32 32 0 0 1 32 32z m-64 32h-384v128h384z m288-128h-448a32 32 0 0 1-32-32v-192a32 32 0 0 1 32-32h448a32 32 0 0 1 32 32v192a32 32 0 0 1-32 32z m-32-192h-384v128h384z" />
<glyph glyph-name="gear" unicode="&#xe001;" d="M512 640a192 192 0 1 1 192-192 192 192 0 0 1-192 192z m0-320a128 128 0 1 0 128 128 128 128 0 0 0-128-128z m385 80a73 73 0 0 0-25 48 72 72 0 0 0 25 48l77 63a64 64 0 0 1 17 83l-71 124a64 64 0 0 1-56 32 63 63 0 0 1-25-5l-93-35a72 72 0 0 0-24-4 62 62 0 0 0-30 6 71 71 0 0 0-29 45l-16 99a64 64 0 0 1-63 56h-143a64 64 0 0 1-64-56l-16-98a73 73 0 0 0-29-46 61 61 0 0 0-29-6 70 70 0 0 0-25 4l-93 35a63 63 0 0 1-25 5 64 64 0 0 1-56-32l-71-124a64 64 0 0 1 17-83l77-63a73 73 0 0 0 25-48 72 72 0 0 0-25-48l-77-63a64 64 0 0 1-17-83l71-124a64 64 0 0 1 56-32 63 63 0 0 1 25 5l93 35a72 72 0 0 0 25 4 62 62 0 0 0 29-6 71 71 0 0 0 29-45l16-99a64 64 0 0 1 64-56h143a64 64 0 0 1 63 56l16 98a73 73 0 0 0 29 46 61 61 0 0 0 29 6 70 70 0 0 0 25-4l93-35a64 64 0 0 1 81 27l71 124a64 64 0 0 1-17 83z m-35-237l-94 35a134 134 0 0 1-47 9 123 123 0 0 1-61-16 136 136 0 0 1-60-90l-16-101-144 3-16 98a135 135 0 0 1-60 91 125 125 0 0 1-61 14 136 136 0 0 1-47-8l-96-36-70 126 78 63a135 135 0 0 1 48 97 136 136 0 0 1-49 97l-79 65 74 123 94-35a134 134 0 0 1 47-8 123 123 0 0 1 61 15 136 136 0 0 1 60 90l17 101h143l0-2 16-99a135 135 0 0 1 61-90 125 125 0 0 1 60-15 136 136 0 0 1 48 8l96 36 69-125-77-64a135 135 0 0 1-48-97 136 136 0 0 1 48-97l79-65z" />
<glyph glyph-name="globe" unicode="&#xe129;" d="M512 960a512 512 0 1 1 512-512 513 513 0 0 1-512 512z m404-320h-181a1019 1019 0 0 1-64 226 450 450 0 0 0 245-226z m44-192a445 445 0 0 0-19-128h-196a1205 1205 0 0 1 7 128 1205 1205 0 0 1-7 128h196a445 445 0 0 0 19-128z m-896 0a445 445 0 0 0 19 128h196a1200 1200 0 0 1 0-256h-196a445 445 0 0 0-19 128z m272 0a1138 1138 0 0 0 7 128h338a1138 1138 0 0 0 7-128 1138 1138 0 0 0-7-128h-338a1138 1138 0 0 0-7 128z m256 440a931 931 0 0 0 78-248h-316a931 931 0 0 0 78 248 426 426 0 0 0 160 0z m-239-22a1019 1019 0 0 1-64-226h-181a450 450 0 0 0 245 226z m-245-610h181a1023 1023 0 0 1 64-226 450 450 0 0 0-245 226z m324-248a936 936 0 0 0-78 248h316a936 936 0 0 0-78-248 426 426 0 0 0-160 0z m239 22a1023 1023 0 0 1 64 226h181a450 450 0 0 0-245-226z" />
<glyph glyph-name="history" unicode="&#xe0f7;" d="M832 416a32 32 0 0 1-32 32h-288v288a32 32 0 0 1-64 0v-320a32 32 0 0 1 32-32h320a32 32 0 0 1 32 32z m-320 544a513 513 0 0 1-512-512 491 491 0 0 1 184-384h-152a32 32 0 0 1 0-64h256a32 32 0 0 1 32 32v256a32 32 0 0 1-64 0v-199a431 431 0 0 0-192 359 448 448 0 1 0 478-446 32 32 0 0 1 2-65h2a512 512 0 0 1-34 1023z" />
<glyph glyph-name="home" unicode="&#xe014;" d="M1014 503l-54 51v342a64 64 0 0 1-64 64h-128a64 64 0 0 1-64-64v-103l-170 158a32 32 0 0 1-44 0l-480-448a32 32 0 1 1 44-46l10 9v-466a64 64 0 0 1 64-64h256a64 64 0 0 1 64 64v320a64 64 0 0 0 128 0v-320a64 64 0 0 1 64-64h256a64 64 0 0 1 64 64v466l10-9a32 32 0 1 1 44 46z m-118-503h-256v320a128 128 0 0 1-256 0v-320h-256v526l384 358 384-358z m0 613l-128 120v163h128z" />
<glyph glyph-name="image" unicode="&#xe13d;" d="M960 832h-896c-35 0-64-29-64-64v-640c0-35 29-64 64-64h896c35 0 64 29 64 64v640c0 35-29 64-64 64z m-896-64h896v-339l-137 138c-6 6-14 9-23 9s-17-3-23-9l-233-234-105 106c-6 6-14 9-23 9s-17-3-23-9l-310-311h-19z m435-480l-160-160h-166l243 243z m461-192v32h-531l371 371 160-160v-211z m-640 480c0-35-29-64-64-64s-64 29-64 64 29 64 64 64 64-29 64-64z" />
<glyph glyph-name="hammer" unicode="&#xe061;" d="M1015 567a32 32 0 0 1-46 0l-9-10-45 46a65 65 0 0 0-19 45v49a127 127 0 0 1-37 89l-77 79a324 324 0 0 1-230 96l-72-1a32 32 0 0 1-23-55l125-124a64 64 0 0 0 0-90l-546-546a123 123 0 0 1 173-173l514 514a64 64 0 0 0 90 0l38-38-10-9a32 32 0 0 1 46-46l128 128a32 32 0 0 1 0 46z m-851-550a59 59 0 0 0-83 83l461 461 83-83z m732 476l-37 38a128 128 0 0 1-181 0l-8-7-82 82 39 40a128 128 0 0 1 0 181l-71 70a258 258 0 0 0 180-77l78-79a64 64 0 0 0 18-44v-49a129 129 0 0 1 38-91l45-45z" />
<glyph glyph-name="info-circle" unicode="&#xe023;" d="M512 960c-283 0-512-229-512-512s229-512 512-512 512 229 512 512c0 283-229 512-512 512z m0-960c-247 0-448 201-448 448s201 448 448 448 448-201 448-448c0-247-201-448-448-448z m64 640c0-35-29-64-64-64s-64 29-64 64 29 64 64 64 64-29 64-64z m-64-128c-35 0-64-29-64-64v-192c0-35 29-64 64-64s64 29 64 64v192c0 35-29 64-64 64z" />
<glyph glyph-name="info-circle_s" unicode="&#xe1ac;" d="M512 960a512 512 0 1 1 512-512 513 513 0 0 1-512 512z m64-704a64 64 0 0 0-128 0v192a64 64 0 0 0 128 0z m-64 320a64 64 0 1 0 64 64 64 64 0 0 0-64-64z" />
<glyph glyph-name="interactive-grid" unicode="&#xe182;" d="M960 832h-896a64 64 0 0 1-64-64v-640a64 64 0 0 1 64-64h896a64 64 0 0 1 64 64v640a64 64 0 0 1-64 64z m-768-704h-128v128h128z m0 192h-128v128h128z m0 192h-128v128h128z m576-384h-512v512h128v-192h384z m192 0h-128v128h128z m0 192h-128v128h128z m0 192h-512v128h512z m0 192h-896v64h896z" />
<glyph glyph-name="interactive-report" unicode="&#xe139;" d="M1011 186l-255 192a32 32 0 0 1-51-26l-1-320a32 32 0 0 1 22-31 31 31 0 0 1 10-1 32 32 0 0 1 26 14l63 90 75-150a32 32 0 1 1 57 28l-73 146h108a32 32 0 0 1 19 58z m-51 646h-896a64 64 0 0 1-64-64v-640a64 64 0 0 1 64-64h576l0 64h-384v128h385l-1 64h-384v128h704v-143l64-48v511a64 64 0 0 1-64 64z m-768-704h-128v128h128z m0 192h-128v128h128z m0 192h-128v128h128z m768 0h-704v128h704z m0 192h-896v64h896z" />
<glyph glyph-name="key-alt" unicode="&#xe199;" d="M0 128v-160a32 32 0 0 1 32-32h256a32 32 0 0 1 32 32v96h96a32 32 0 0 1 32 32v115l134 134a311 311 0 0 1 122-25 320 320 0 1 1-320 320 315 315 0 0 1 16-99l-390-390a32 32 0 0 1-10-23z m64-13l396 395a32 32 0 0 1 7 35 256 256 0 1 0 237-161 253 253 0 0 0-114 28 32 32 0 0 1-37-6l-160-159a32 32 0 0 1-9-23v-96h-96a32 32 0 0 1-32-32v-96h-192z m640 589a64 64 0 1 1 64 64 64 64 0 0 1-64-64z" />
<glyph glyph-name="keys" unicode="&#xe198;" d="M832 640c0-35-29-64-64-64s-64 29-64 64 29 64 64 64 64-29 64-64z m98 162c-57 58-137 93-224 93-15 0-30-1-45-3l2 0c-49 42-114 67-184 67-159 0-287-128-287-286 0-38 8-74 21-108l-1 2c3-6 4-14 4-21 0-20-9-38-22-51l0 0-156-156c-24-23-38-55-38-91v-120c0-35 29-64 64-64h64v-64c0-35 29-64 64-64h128c35 0 64 29 64 64v64h64c35 0 64 29 64 64v86c5 6 16 18 40 41 12 11 27 18 45 18 6 0 12-1 18-3l0 0c27-8 58-13 90-13 177 0 320 143 320 319 0 88-36 169-95 226l0 0z m-764-591c-22-22-35-51-37-83l0 0h-65v120c0 18 7 34 19 46l156 156c25 24 41 58 41 95 0 17-3 32-8 47l0-1c-10 24-16 52-16 81 0 123 100 223 223 223 37 0 72-9 102-25l-1 0c-116-48-195-161-195-292 0-32 4-62 13-91l-1 3c2-6 3-12 3-18 0-18-7-34-19-45l0 0z m719 184c-46-46-109-74-179-74-26 0-51 4-75 11l2-1c-11 4-23 6-36 6-35 0-66-14-89-36l0 0c-55-54-60-61-60-77v-96h-64c-35 0-64-29-64-64v-64h-128v120c0 18 7 34 19 46l216 215c23 24 37 55 37 91 0 12-2 24-5 36l0-1c-6 21-10 44-10 69 0 141 115 255 256 255s255-114 255-255c0-71-29-135-75-181l0 0z" />
<glyph glyph-name="italic" unicode="&#xe90b;" d="M800 896h-384a32 32 0 0 1 0-64h152l-178-768h-166a32 32 0 0 1 0-64h384a32 32 0 0 1 0 64h-152l178 768h166a32 32 0 0 1 0 64z" />
<glyph glyph-name="layout-header-nav-left" unicode="&#xe150;" d="M960 832h-896a64 64 0 0 1-64-64v-640a64 64 0 0 1 64-64h896a64 64 0 0 1 64 64v640a64 64 0 0 1-64 64z m-704-704h-192v128h192z m0 192h-192v128h192z m0 192h-192v128h192z m64-384v512h640v-512z m640 576h-896v64h896z" />
<glyph glyph-name="layout-modal-header" unicode="&#xe0c7;" d="M320 832h128v-64h-128z m256 0h128v-64h-128z m-256-704h128v-64h-128z m256 0h128v-64h-128z m-576 384h64v-128h-64z m960 0h64v-128h-64z m-224 128h-448c-18 0-32-14-32-32v-320c0-18 14-32 32-32h448c18 0 32 14 32 32v320c0 18-14 32-32 32z m-32-320h-384v192h384z m-704 448v-128h64v128h128v64h-128c-35 0-64-29-64-64z m960 64h-128v-64h128v-128h64v128c0 35-29 64-64 64z m0-704h-128v-64h128c35 0 64 29 64 64v128h-64z m-896 128h-64v-128c0-35 29-64 64-64h128v64h-128z" />
<glyph glyph-name="layout-header-nav-left-rows" unicode="&#xe030;" d="M960 832h-896a64 64 0 0 1-64-64v-640a64 64 0 0 1 64-64h896a64 64 0 0 1 64 64v640a64 64 0 0 1-64 64z m-896-64h896v-64h-896z m896-128v-224h-704v224z m-768-512h-128v512h128z m64 0v224h704v-224z" />
<glyph glyph-name="layout-header-tabs" unicode="&#xe155;" d="M960 832h-896a64 64 0 0 1-64-64v-640a64 64 0 0 1 64-64h896a64 64 0 0 1 64 64v640a64 64 0 0 1-64 64z m-896-704v512h256v-192h640v-320z m320 384v128h256v-128z m576 0h-256v128h256z m0 192h-896v64h896z" />
<glyph glyph-name="layout-modal-rows" unicode="&#xe0ec;" d="M320 832h128v-64h-128z m256 0h128v-64h-128z m-256-704h128v-64h-128z m256 0h128v-64h-128z m-576 384h64v-128h-64z m960 0h64v-128h-64z m-224 128h-448c-18 0-32-14-32-32v-320c0-18 14-32 32-32h448c18 0 32 14 32 32v320c0 18-14 32-32 32z m-32-320h-384v96h384z m0 160h-384v96h384z m-704 288v-128h64v128h128v64h-128c-35 0-64-29-64-64z m960 64h-128v-64h128v-128h64v128c0 35-29 64-64 64z m0-704h-128v-64h128c35 0 64 29 64 64v128h-64z m-896 128h-64v-128c0-35 29-64 64-64h128v64h-128z" />
<glyph glyph-name="line-chart" unicode="&#xe172;" d="M992 128h-928v147l191 191a125 125 0 0 1 141 8l128-102a126 126 0 0 1-12-52 128 128 0 0 1 256 0 127 127 0 0 1-25 75l100 129a127 127 0 0 1 53-12 128 128 0 1 1-128 128 127 127 0 0 1 25-75l-100-129a125 125 0 0 1-129-14l-127 102a126 126 0 0 1 11 52 128 128 0 1 1-238-65l-146-146v435a32 32 0 0 1-64 0v-704a32 32 0 0 1 32-32h960a32 32 0 0 1 0 64z m-96 576a64 64 0 1 0-64-64 64 64 0 0 0 64 64z m-256-320a64 64 0 1 0-64-64 64 64 0 0 0 64 64z m-320 256a64 64 0 1 0-64-64 64 64 0 0 0 64 64z" />
<glyph glyph-name="list" unicode="&#xe12d;" d="M416 768h576a32 32 0 0 1 0 64h-576a32 32 0 0 1 0-64z m576-256h-576a32 32 0 0 1 0-64h576a32 32 0 0 1 0 64z m0-320h-576a32 32 0 0 1 0-64h576a32 32 0 0 1 0 64z m-864 704a128 128 0 1 1 128-128 128 128 0 0 1-128 128z m0-192a64 64 0 1 0 64 64 64 64 0 0 0-64-64z m0-128a128 128 0 1 1 128-128 128 128 0 0 1-128 128z m0-192a64 64 0 1 0 64 64 64 64 0 0 0-64-64z m0-128a128 128 0 1 1 128-128 128 128 0 0 1-128 128z m0-192a64 64 0 1 0 64 64 64 64 0 0 0-64-64z" />
<glyph glyph-name="link" unicode="&#xe90c;" d="M265 695a32 32 0 0 1 0-46l448-448a32 32 0 0 1 46 46l-448 448a32 32 0 0 1-46 0z m53-247a193 193 0 0 0-138 57l-59 59a194 194 0 0 0 275 275l59-59a193 193 0 0 0 57-138 187 187 0 0 0-3-29v0a32 32 0 0 1 27-36 33 33 0 0 1 36 27 248 248 0 0 1 4 38 257 257 0 0 1-76 183l-59 59a258 258 0 1 1-365-365l59-59a257 257 0 0 1 183-76 32 32 0 0 1 0 64z m630-71l-59 59a257 257 0 0 1-183 76 32 32 0 0 1 0-64 193 193 0 0 0 138-57l59-59a194 194 0 0 0-275-275l-59 59a184 184 0 0 0-54 167 32 32 0 1 1-63 10 248 248 0 0 1 72-222l59-59a258 258 0 1 1 365 365z" />
<glyph glyph-name="list-shapes" unicode="&#xe055;" d="M544 768h448a32 32 0 0 1 0 64h-448a32 32 0 0 1 0-64z m0-192h320a32 32 0 0 1 0 64h-320a32 32 0 0 1 0-64z m448-256h-448a32 32 0 0 1 0-64h448a32 32 0 0 1 0 64z m-128-192h-320a32 32 0 0 1 0-64h320a32 32 0 0 1 0 64z m-672 768a192 192 0 1 1 192-192 192 192 0 0 1-192 192z m0-320a128 128 0 1 0 128 128 128 128 0 0 0-128-128z m29-210a33 33 0 0 1-58 0l-160-320a32 32 0 0 1 29-46h320a32 32 0 0 1 29 46z m-137-302l108 216 108-216z" />
<glyph glyph-name="list-ul" unicode="&#xe90e;" d="M416 768h576a32 32 0 0 1 0 64h-576a32 32 0 0 1 0-64z m576-256h-576a32 32 0 0 1 0-64h576a32 32 0 0 1 0 64z m0-320h-576a32 32 0 0 1 0-64h576a32 32 0 0 1 0 64z m-864 704a128 128 0 1 1 128-128 128 128 0 0 1-128 128z m0-192a64 64 0 1 0 64 64 64 64 0 0 0-64-64z m0-128a128 128 0 1 1 128-128 128 128 0 0 1-128 128z m0-192a64 64 0 1 0 64 64 64 64 0 0 0-64-64z m0-128a128 128 0 1 1 128-128 128 128 0 0 1-128 128z m0-192a64 64 0 1 0 64 64 64 64 0 0 0-64-64z" />
<glyph glyph-name="list-ol" unicode="&#xe056;" d="M146 773l47 32v-264a32 32 0 0 1 64 0v323a32 32 0 0 1-50 27l-97-64a32 32 0 1 1 36-54z m62-657c50 29 112 66 112 140a128 128 0 0 1-256 0 32 32 0 0 1 64 0 64 64 0 0 0 128 0c0-36-30-55-80-84s-112-66-112-140a32 32 0 0 1 32-32h192a32 32 0 0 1 0 64h-150a224 224 0 0 0 70 52z m272 652h448a32 32 0 0 1 0 64h-448a32 32 0 0 1 0-64z m0-192h320a32 32 0 0 1 0 64h-320a32 32 0 0 1 0-64z m448-256h-448a32 32 0 0 1 0-64h448a32 32 0 0 1 0 64z m-128-192h-320a32 32 0 0 1 0-64h320a32 32 0 0 1 0 64z" />
<glyph glyph-name="list-view" unicode="&#xe086;" d="M672 832h-640a32 32 0 0 1 0-64h640a32 32 0 0 1 0 64z m0-320h-640a32 32 0 0 1 0-64h640a32 32 0 0 1 0 64z m247 55a32 32 0 0 1-46-46l74-73-74-73a32 32 0 0 1 46-46l96 96a32 32 0 0 1 0 46z m-46 82a32 32 0 0 1 46 0l96 96a32 32 0 0 1 0 46l-96 96a32 32 0 0 1-46-46l74-73-74-73a32 32 0 0 1 0-46z m-201-457h-640a32 32 0 0 1 0-64h640a32 32 0 0 1 0 64z m247 55a32 32 0 0 1-46-46l74-73-74-73a32 32 0 0 1 46-46l96 96a32 32 0 0 1 0 46z" />
<glyph glyph-name="lock" unicode="&#xe031;" d="M768 576v128a256 256 0 0 1-512 0v-128a128 128 0 0 1-128-128v-384a128 128 0 0 1 128-128h512a128 128 0 0 1 128 128v384a128 128 0 0 1-128 128z m-448 128a192 192 0 0 0 384 0v-128h-384z m512-640a64 64 0 0 0-64-64h-512a64 64 0 0 0-64 64v384a64 64 0 0 0 64 64h512a64 64 0 0 0 64-64z m-320 256a32 32 0 0 1-32-32v-64a32 32 0 0 1 64 0v64a32 32 0 0 1-32 32z" />
<glyph glyph-name="lock-user" unicode="&#xe035;" d="M946 161l-63 37a190 190 0 0 1 45 122 192 192 0 0 1-384 0 190 190 0 0 1 45-122l-63-37a161 161 0 0 1-78-137v-56a32 32 0 0 1 32-32h512a32 32 0 0 1 32 32v56a161 161 0 0 1-78 137z m-210 287a128 128 0 1 0-128-128 128 128 0 0 0 128 128z m224-448h-448v24a96 96 0 0 0 47 82l81 49a186 186 0 0 1 192 0l81-49a96 96 0 0 0 47-82z m-467 216l8 4a248 248 0 0 0-12 36h-361a64 64 0 0 0-64 64v256a64 64 0 0 0 64 64h384a64 64 0 0 0 64-64v-58a254 254 0 0 0 64 39v19a128 128 0 0 1-128 128v64a192 192 0 0 1-384 0v-64a128 128 0 0 1-128-128v-256a128 128 0 0 1 128-128h333a218 218 0 0 0 32 24z m-301 552a128 128 0 0 0 256 0v-64h-256z" />
<glyph glyph-name="map-marker" unicode="&#xe12b;" d="M512 736a128 128 0 1 1 128-128 128 128 0 0 1-128 128z m0-192a64 64 0 1 0 64 64 64 64 0 0 0-64-64z m0 416a352 352 0 0 1-305-527l277-481a32 32 0 0 1 56 0l278 481a352 352 0 0 1-306 527z m250-495l-250-433-250 433a288 288 0 1 0 500 0z" />
<glyph glyph-name="lock-password" unicode="&#xe142;" d="M832 576h-64v128c0 141-115 256-256 256s-256-115-256-256v-128h-64c-71 0-128-57-128-128v-384c0-71 57-128 128-128h640c71 0 128 57 128 128v384c0 71-57 128-128 128z m-512 128c0 106 86 192 192 192s192-86 192-192v-128h-384z m576-640c0-35-29-64-64-64h-640c-35 0-64 29-64 64v384c0 35 29 64 64 64h640c35 0 64-29 64-64z m-512 192c0-35-29-64-64-64s-64 29-64 64 29 64 64 64 64-29 64-64z m192 0c0-35-29-64-64-64s-64 29-64 64 29 64 64 64 64-29 64-64z m192 0c0-35-29-64-64-64s-64 29-64 64 29 64 64 64 64-29 64-64z" />
<glyph glyph-name="markdown" unicode="&#xe907;" d="M426 702a32 32 0 0 1-36-11l-166-222-166 222a32 32 0 0 1-58-19v-448a32 32 0 0 1 64 0v352l134-179a33 33 0 0 1 52 0l134 179v-352a32 32 0 0 1 64 0v448a32 32 0 0 1-22 30z m589-263a32 32 0 0 1-46 0l-137-138v371a32 32 0 0 1-64 0v-371l-137 138a32 32 0 0 1-46-46l192-192a32 32 0 0 1 46 0l192 192a32 32 0 0 1 0 46z" />
<glyph glyph-name="mobile" unicode="&#xe067;" d="M672-64h-320c-71 0-128 57-128 128v768c0 71 57 128 128 128h320c71 0 128-57 128-128v-768c0-71-57-128-128-128z m-320 960c-35 0-64-29-64-64v-768c0-35 29-64 64-64h320c35 0 64 29 64 64v768c0 35-29 64-64 64z m192-800c0-18-14-32-32-32s-32 14-32 32 14 32 32 32 32-14 32-32z m0 672h-64c-18 0-32 14-32 32s14 32 32 32h64c18 0 32-14 32-32s-14-32-32-32z" />
<glyph glyph-name="minus" unicode="&#xe167;" d="M800 416h-576a32 32 0 0 0 0 64h576a32 32 0 0 0 0-64z" />
<glyph glyph-name="objects" unicode="&#xe197;" d="M192 320h-128v576h576v-128a450 450 0 0 0 64-5v133a64 64 0 0 1-64 64h-576a64 64 0 0 1-64-64v-576a64 64 0 0 1 64-64h133a450 450 0 0 0-5 64z m448-384a384 384 0 1 0 384 384 384 384 0 0 0-384-384z m0 704a320 320 0 1 1 320-320 320 320 0 0 1-320 320z" />
<glyph glyph-name="number-field" unicode="&#xe141;" d="M367 636a32 32 0 0 1-33-1l-96-64a32 32 0 0 1 36-54l46 31v-260a32 32 0 0 1 64 0v320a32 32 0 0 1-17 28z m305 68a32 32 0 0 1-32-32v-448a32 32 0 0 1 64 0v448a32 32 0 0 1-32 32z m288 128h-896a64 64 0 0 1-64-64v-640a64 64 0 0 1 64-64h896a64 64 0 0 1 64 64v640a64 64 0 0 1-64 64z m-896-704v640h896v-640z" />
<glyph glyph-name="page-bottom" unicode="&#xe17e;" d="M489 425a32 32 0 0 1 46 0l352 352a32 32 0 0 1-46 46l-329-330-329 330a32 32 0 0 1-46-46z m375-297h-704a32 32 0 0 1 0-64h704a32 32 0 0 1 0 64z" />
<glyph glyph-name="page-first" unicode="&#xe17f;" d="M489 471a32 32 0 0 1 0-46l352-352a32 32 0 0 1 46 46l-330 329 330 329a32 32 0 0 1-46 46z m-297-375v704a32 32 0 0 1-64 0v-704a32 32 0 0 1 64 0z" />
<glyph glyph-name="page-last" unicode="&#xe180;" d="M535 425a32 32 0 0 1 0 46l-352 352a32 32 0 0 1-46-46l330-329-330-329a32 32 0 0 1 46-46z m297 375v-704a32 32 0 0 1 64 0v704a32 32 0 0 1-64 0z" />
<glyph glyph-name="page-top" unicode="&#xe181;" d="M535 471a32 32 0 0 1-46 0l-352-352a32 32 0 0 1 46-46l329 330 329-330a32 32 0 0 1 46 46z m-375 297h704a32 32 0 0 1 0 64h-704a32 32 0 0 1 0-64z" />
<glyph glyph-name="paint-roller" unicode="&#xe037;" d="M832 960h-576a128 128 0 0 1-128-128h-64a64 64 0 0 1-64-64v-149a128 128 0 0 1 97-124l367-92a64 64 0 0 0 48-62v-21a64 64 0 0 1-64-64v-256a64 64 0 0 1 64-64h64a64 64 0 0 1 64 64v256a64 64 0 0 1-64 64v21a128 128 0 0 1-97 124l-367 92a64 64 0 0 0-48 62v149h64a128 128 0 0 1 128-128h576a128 128 0 0 1 128 128v64a128 128 0 0 1-128 128z m-256-960h-64v256h64z m320 768a64 64 0 0 0-64-64h-576a64 64 0 0 0-64 64v64a64 64 0 0 0 64 64h576a64 64 0 0 0 64-64z" />
<glyph glyph-name="paste" unicode="&#xe18e;" d="M960 448h-384a64 64 0 0 1-64-64v-384a64 64 0 0 1 64-64h384a64 64 0 0 1 64 64v384a64 64 0 0 1-64 64z m0-448h-384v384h384z m-896 128v640a64 64 0 0 0 64 64h64v-64a64 64 0 0 1 64-64h256a64 64 0 0 1 64 64v64h64a64 64 0 0 0 64-64v-256h64v256a128 128 0 0 1-128 128h-120a65 65 0 0 0-45 19l-14 13a110 110 0 0 1-154 0l-13-13a65 65 0 0 0-46-19h-120a128 128 0 0 1-128-128v-640a128 128 0 0 1 128-128h320v64h-320a64 64 0 0 0-64 64z m192 704a129 129 0 0 1 83 37l13 14a47 47 0 0 0 64 0l13-13a129 129 0 0 1 83-38v-64h-256z" />
<glyph glyph-name="pencil" unicode="&#xe046;" d="M988 924a122 122 0 0 1-173 0l-715-715a193 193 0 0 1-46-75l-52-156a32 32 0 0 1 40-40l156 52a193 193 0 0 1 75 46l715 715a122 122 0 0 1 0 173z m-760-842a128 128 0 0 0-50-31l-76-25-13 13 25 75a128 128 0 0 0 31 50l591 591 83-83z m715 714l-79-79-83 83 79 79a59 59 0 0 0 83-83z" />
<glyph glyph-name="pivot" unicode="&#xe0ef;" d="M96 192a32 32 0 0 1-32-32v-128a32 32 0 0 1 64 0v128a32 32 0 0 1-32 32z m0 320a32 32 0 0 1-32-32v-128a32 32 0 0 1 64 0v128a32 32 0 0 1-32 32z m832 384h-742a96 96 0 1 1-122-122v-102a32 32 0 0 1 64 0v102a96 96 0 0 1 58 58h742a32 32 0 0 1 0 64z m-832-64a32 32 0 1 0 32 32 32 32 0 0 0-32-32z m599-137a32 32 0 0 1-46 0l-160-160a32 32 0 0 1 46-46l105 106v-147a256 256 0 0 0-256-256h-96a32 32 0 0 1 0-64h96a320 320 0 0 1 320 320v147l105-106a32 32 0 0 1 46 46z" />
<glyph glyph-name="pie-chart" unicode="&#xe173;" d="M800 384h-352v352a32 32 0 0 1-32 32 416 416 0 1 1 416-416 32 32 0 0 1-32 32z m-384-384a352 352 0 0 0-32 703v-351a31 31 0 0 1 5-16l0 0 179-300a348 348 0 0 0-152-36z m207 69l-150 251h294a351 351 0 0 0-144-251z m-79 891a32 32 0 0 1-32-32v-448a32 32 0 0 1 32-32h448a32 32 0 0 1 32 32 481 481 0 0 1-480 480z m32-448v383a417 417 0 0 0 383-383z" />
<glyph glyph-name="plug" unicode="&#xe133;" d="M800 704h-96v224a32 32 0 0 1-64 0v-224h-256v224a32 32 0 0 1-64 0v-224h-96a32 32 0 0 1-32-32v-126a191 191 0 0 1 56-135l136-136v-115a32 32 0 0 1 32-32h64v-160a32 32 0 0 1 64 0v160h64a32 32 0 0 1 32 32v115l136 136a191 191 0 0 1 56 135v126a32 32 0 0 1-32 32z m-32-158a127 127 0 0 0-37-90l-146-145a32 32 0 0 1-9-23v-96h-128v96a32 32 0 0 1-9 23l-145 145a127 127 0 0 0-38 90v94h512z" />
<glyph glyph-name="play-circle" unicode="&#xe034;" d="M368 700a32 32 0 0 1-48-28v-448a32 32 0 0 1 48-28l384 224a32 32 0 0 1 0 56z m144 260a512 512 0 1 1 512-512 513 513 0 0 1-512 512z m0-960a448 448 0 1 0 448 448 449 449 0 0 0-448-448z" />
<glyph glyph-name="plus" unicode="&#xe069;" d="M800 480h-256v256a32 32 0 0 1-64 0v-256h-256a32 32 0 0 1 0-64h256v-256a32 32 0 0 1 64 0v256h256a32 32 0 0 1 0 64z" />
<glyph glyph-name="popup-lov" unicode="&#xe143;" d="M896 768h-864a32 32 0 0 1 0-64h288v-512h-288a32 32 0 0 1 0-64h864a128 128 0 0 1 128 128v384a128 128 0 0 1-128 128z m64-512a64 64 0 0 0-64-64h-512v512h512a64 64 0 0 0 64-64z m-265 279a32 32 0 0 1-46 0l-128-128a32 32 0 0 1 46-46l105 106 105-106a32 32 0 0 1 46 46z" />
<glyph glyph-name="processing" unicode="&#xe04a;" d="M329 649a32 32 0 0 1 46 0l128 128a32 32 0 0 1 0 46l-128 128a32 32 0 0 1-46-46l74-73h-211a192 192 0 0 1-192-192v-384a192 192 0 0 1 192-192h160a32 32 0 0 1 0 64h-160a128 128 0 0 0-128 128v384a128 128 0 0 0 128 128h211l-74-73a32 32 0 0 1 0-46z m503 183h-160a32 32 0 0 1 0-64h160a128 128 0 0 0 128-128v-384a128 128 0 0 0-128-128h-211l74 73a32 32 0 0 1-46 46l-128-128a32 32 0 0 1 0-46l128-128a32 32 0 0 1 46 46l-74 73h211a192 192 0 0 1 192 192v384a192 192 0 0 1-192 192z" />
<glyph glyph-name="polar-chart" unicode="&#xe174;" d="M992 448h-98a545 545 0 0 1-542 512 44 44 0 0 1-23-9 32 32 0 0 1-9-23v-162a352 352 0 0 1 32-702 348 348 0 0 1 226 85l208-204a32 32 0 0 1 46 1 668 668 0 0 1 192 470 32 32 0 0 1-32 32z m-608 447a481 481 0 0 0 447-447h-447v447z m150-702a285 285 0 0 0-182-65 288 288 0 0 0-32 574v-286a32 32 0 0 1 10-23z m274-179l-378 370h529a604 604 0 0 0-151-370z" />
<glyph glyph-name="pyramid-chart" unicode="&#xe189;" d="M1020 48l-480 832a33 33 0 0 1-56 0l-480-832a32 32 0 0 1 28-48h960a32 32 0 0 1 28 48z m-508 752l129-224h-258z m-166-288h332l111-192h-554z m-259-448l111 192h628l110-192z" />
<glyph glyph-name="question-circle" unicode="&#xe04f;" d="M512 960c-283 0-512-229-512-512s229-512 512-512 512 229 512 512c0 283-229 512-512 512z m0-960c-247 0-448 201-448 448s201 448 448 448 448-201 448-448c0-247-201-448-448-448z m39 224c0-18-15-32-32-32s-32 14-32 32 14 32 32 32 32-14 32-32z m-33 480c-88 0-160-72-160-160 0-18 15-32 32-32s32 14 32 32c1 53 43 96 96 96 53 0 96-43 96-96 0-42-27-78-64-91l-1 0c-37-14-63-48-63-89 0-1 0-2 0-3l0 0v-9c0-18 15-32 32-32s32 14 32 32v9c0 1 0 1 0 2 0 13 8 24 19 29l1 0c64 22 109 82 109 152 0 88-72 160-160 160 0 0 0 0-1 0h0z" />
<glyph glyph-name="radio-group" unicode="&#xe144;" d="M192 896c-106 0-192-86-192-192s86-192 192-192 192 86 192 192c0 106-86 192-192 192z m0-320c-71 0-128 57-128 128s57 128 128 128 128-57 128-128c0-71-57-128-128-128z m64 128c0-35-29-64-64-64s-64 29-64 64 29 64 64 64 64-29 64-64z m-64-320c-106 0-192-86-192-192s86-192 192-192 192 86 192 192c0 106-86 192-192 192z m0-320c-71 0-128 57-128 128s57 128 128 128 128-57 128-128c0-71-57-128-128-128z m352 704h448c18 0 32 14 32 32s-14 32-32 32h-448c-18 0-32-14-32-32s14-32 32-32z m448-128h-448c-18 0-32-14-32-32s14-32 32-32h448c18 0 32 14 32 32s-14 32-32 32z m0-320h-448c-18 0-32-14-32-32s14-32 32-32h448c18 0 32 14 32 32s-14 32-32 32z m0-192h-448c-18 0-32-14-32-32s14-32 32-32h448c18 0 32 14 32 32s-14 32-32 32z" />
<glyph glyph-name="quote-left" unicode="&#xe910;" d="M224 512a222 222 0 0 1-119-35 548 548 0 0 0 322 293 32 32 0 0 1-22 60 584 584 0 0 1-405-542 224 224 0 1 1 224 224z m0-384a160 160 0 1 0 160 160 160 160 0 0 0-160-160z m576 384a222 222 0 0 1-119-35 548 548 0 0 0 322 293 32 32 0 1 1-22 60 584 584 0 0 1-405-542 224 224 0 1 1 224 224z m0-384a160 160 0 1 0 160 160 160 160 0 0 0-160-160z" />
<glyph glyph-name="radar-chart" unicode="&#xe175;" d="M928 380v137a128 128 0 1 1-128 207l-163 81a128 128 0 1 1-250 0l-163-81a128 128 0 1 1 0-168l163-81a127 127 0 0 1 93-150v-137a128 128 0 1 1 157-97l163 81a128 128 0 1 1 128 208z m-32 324a64 64 0 1 0-64-64 64 64 0 0 0 64 64z m-384 192a64 64 0 1 0-64-64 64 64 0 0 0 64 64z m-384-320a64 64 0 1 0 64 64 64 64 0 0 0-64-64z m320-128a64 64 0 1 0 64-64 64 64 0 0 0-64 64z m64-448a64 64 0 1 0 64 64 64 64 0 0 0-64-64z m96 148a128 128 0 0 1-64 40v137a128 128 0 1 1-128 207l-163 81a123 123 0 0 1 0 54l163 81a126 126 0 0 1 192 0l163-81a127 127 0 0 1 93-150v-137a127 127 0 0 1-93-151z m288 44a64 64 0 1 0 64 64 64 64 0 0 0-64-64z" />
<glyph glyph-name="range" unicode="&#xe913;" d="M197 334a32 32 0 0 1 54 0v0l112 168a127 127 0 0 1 21 71h0v67h256v-67a127 127 0 0 1 22-71l111-168a32 32 0 0 1 54 0v0l112 168a127 127 0 0 1 21 71h0v227a32 32 0 0 1-32 32h-256a32 32 0 0 1-32-32v-96h-256v96a32 32 0 0 1-32 32h-256a32 32 0 0 1-32-32v-227a127 127 0 0 1 22-71z m507 434h192v-195a63 63 0 0 0-11-36l0 0-85-127-85 128a64 64 0 0 0-11 35z m-576 0h192v-195a64 64 0 0 0-11-36l0 0-85-127-85 128a64 64 0 0 0-11 35z m864-640h-160v96a32 32 0 0 1-64 0v-96h-224v96a32 32 0 0 1-64 0v-96h-224v96a32 32 0 0 1-64 0v-96h-160a32 32 0 0 1 0-64h960a32 32 0 0 1 0 64z" />
<glyph glyph-name="range-chart-area" unicode="&#xe176;" d="M293 376l299-179a32 32 0 0 1 34 0l176 118 112-56a32 32 0 0 1 46 29v99a128 128 0 0 1-21 71l-112 168a32 32 0 0 1-24 14 33 33 0 0 1-25-9l-101-101-106 160a32 32 0 0 1-24 14 33 33 0 0 1-25-9l-101-101-106 160a32 32 0 0 1-28 14 32 32 0 0 1-26-16l-133-221v333a32 32 0 0 1-64 0v-832a32 32 0 0 1 32-32h832a32 32 0 0 1 0 64h-800v147z m-165 31l161 269 100-150a32 32 0 0 1 50-5l100 101 106-160a32 32 0 0 1 50-5l100 101 90-136a64 64 0 0 0 11-35v-47l-82 41a32 32 0 0 1-32-2l-175-117-303 182a32 32 0 0 1-39-5l-137-138z" />
<glyph glyph-name="range-chart-bar" unicode="&#xe177;" d="M928 64h-832a32 32 0 0 1 0-64h832a32 32 0 0 1 0 64z m-832 192h192a32 32 0 0 1 32 32v448a32 32 0 0 1-32 32h-192a32 32 0 0 1-32-32v-448a32 32 0 0 1 32-32z m32 448h128v-384h-128z m288-576h192a32 32 0 0 1 32 32v448a32 32 0 0 1-32 32h-192a32 32 0 0 1-32-32v-448a32 32 0 0 1 32-32z m32 448h128v-384h-128z m480 320h-192a32 32 0 0 1-32-32v-448a32 32 0 0 1 32-32h192a32 32 0 0 1 32 32v448a32 32 0 0 1-32 32z m-32-448h-128v384h128z" />
<glyph glyph-name="reflow-report" unicode="&#xe0e6;" d="M896 960h-640a128 128 0 0 1-128-128v-787l-73 74a32 32 0 0 1-46-46l128-128a33 33 0 0 1 11-7 32 32 0 0 1 24 0 33 33 0 0 1 11 7l128 128a32 32 0 0 1-46 46l-73-74v787a64 64 0 0 0 64 64h640a64 64 0 0 0 64-64v-512a64 64 0 0 0-64-64h-256v192h192a64 64 0 0 1 64 64v192a64 64 0 0 1-64 64h-448a64 64 0 0 1-64-64v-448a64 64 0 0 1 64-64h512a128 128 0 0 1 128 128v512a128 128 0 0 1-128 128z m-64-448h-192v192h192z m-448 192h192v-192h-192z m0-256h192v-192h-192z" />
<glyph glyph-name="refresh" unicode="&#xe01e;" d="M928 480a32 32 0 0 1-32-32 384 384 0 0 0-670-256h190a32 32 0 0 1 0 64h-256a32 32 0 0 1-32-32v-256a32 32 0 0 1 64 0v168a447 447 0 0 1 768 312 32 32 0 0 1-32 32z m-416 352a384 384 0 0 0 286-128h-190a32 32 0 0 1 0-64h256a32 32 0 0 1 32 32v256a32 32 0 0 1-64 0v-168a447 447 0 0 1-768-312 32 32 0 0 1 64 0 384 384 0 0 0 384 384z" />
<glyph glyph-name="repeat" unicode="&#xe01d;" d="M511 960a463 463 0 0 0 385-199v167a32 32 0 0 0 64 0v-256a32 32 0 0 0-32-32h-256a32 32 0 0 0 0 64h186a405 405 0 0 1-347 192 448 448 0 1 1 389-670 32 32 0 0 0 55-32 512 512 0 1 0-444 766z" />
<glyph glyph-name="resource-handler" unicode="&#xe19b;" d="M992 64h-32v768a64 64 0 0 1-64 64h-768v32a32 32 0 0 1-32 32h-64a32 32 0 0 1-32-32v-64a32 32 0 0 1 32-32h32v-416a32 32 0 0 1 64 0v416h768v-768h-416a32 32 0 0 1 0-64h416v-32a32 32 0 0 1 32-32h64a32 32 0 0 1 32 32v64a32 32 0 0 1-32 32z m-352 224a32 32 0 0 1 64 0v320a32 32 0 0 1-32 32h-320a32 32 0 0 1 0-64h243l-458-457a32 32 0 0 1 46-46l457 458z" />
<glyph glyph-name="rich-text-editor" unicode="&#xe145;" d="M736 704h-448a32 32 0 0 1-32-32v-64a32 32 0 0 1 64 0v32h160v-384h-64a32 32 0 0 1 0-64h192a32 32 0 0 1 0 64h-64v384h160v-32a32 32 0 0 1 64 0v64a32 32 0 0 1-32 32z m96 192h-640a128 128 0 0 1-128-128v-640a128 128 0 0 1 128-128h640a128 128 0 0 1 128 128v640a128 128 0 0 1-128 128z m64-768a64 64 0 0 0-64-64h-640a64 64 0 0 0-64 64v640a64 64 0 0 0 64 64h640a64 64 0 0 0 64-64z" />
<glyph glyph-name="rows" unicode="&#xe106;" d="M960 832h-896a64 64 0 0 1-64-64v-640a64 64 0 0 1 64-64h896a64 64 0 0 1 64 64v640a64 64 0 0 1-64 64z m-896-192h896v-128h-896z m0-192h896v-128h-896z m0-192h896v-128h-896z m0 512h896v-64h-896z" />
<glyph glyph-name="resource-template" unicode="&#xe19c;" d="M992 64h-32v768a64 64 0 0 1-64 64h-768v32a32 32 0 0 1-32 32h-64a32 32 0 0 1-32-32v-64a32 32 0 0 1 32-32h32v-768a64 64 0 0 1 64-64h768v-32a32 32 0 0 1 32-32h64a32 32 0 0 1 32 32v64a32 32 0 0 1-32 32z m-864 0v768h768v-768z" />
<glyph glyph-name="save" unicode="&#xe0cb;" d="M904 742l-98 98a191 191 0 0 1-136 56h-478a128 128 0 0 1-128-128v-640a128 128 0 0 1 128-128h640a128 128 0 0 1 128 128v478a191 191 0 0 1-56 136z m-648 90h384v-192h-384z m640-704a64 64 0 0 0-64-64h-640a64 64 0 0 0-64 64v640a64 64 0 0 0 64 64v-192a64 64 0 0 1 64-64h384a64 64 0 0 1 64 64v187a127 127 0 0 0 56-32l99-98a127 127 0 0 0 37-91z m-384 384a192 192 0 1 1 192-192 192 192 0 0 1-192 192z m0-320a128 128 0 1 0 128 128 128 128 0 0 0-128-128z" />
<glyph glyph-name="save-as" unicode="&#xe0e4;" d="M192 480a160 160 0 1 1 160 160 160 160 0 0 1-160-160z m256 0a96 96 0 1 0-96 96 96 96 0 0 0 96-96z m540 124a126 126 0 0 1-173 0l-395-395a193 193 0 0 1-47-75l-51-156a32 32 0 0 1 30-42 31 31 0 0 1 10 2l156 52a192 192 0 0 1 75 46l395 395a123 123 0 0 1 0 173z m-440-523a128 128 0 0 0-50-31l-95-32 31 96a128 128 0 0 0 31 50l331 331 83-83z m395 395l-19-19-83 83 19 19a59 59 0 0 0 83-82z m-568-221l1 1h-280a32 32 0 0 0-32 32v576a32 32 0 0 0 32 32h36v-129a64 64 0 0 1 64-64h316a64 64 0 0 1 64 64v128a64 64 0 0 0 38-18l71-71a65 65 0 0 0 19-46v-176l64 64v112a129 129 0 0 1-37 91l-72 72a129 129 0 0 1-91 37h-472a96 96 0 0 1-96-96v-576a96 96 0 0 1 96-96h234a254 254 0 0 0 45 63z m-179 641h316v-129h-316z" />
<glyph glyph-name="scatter-chart" unicode="&#xe178;" d="M992 128h-928v736a32 32 0 0 1-64 0v-768a32 32 0 0 1 32-32h960a32 32 0 0 1 0 64z m-704 128a96 96 0 1 1-96 96 96 96 0 0 1 96-96z m0 128a32 32 0 1 0-32-32 32 32 0 0 0 32 32z m320 0a96 96 0 1 1-96 96 96 96 0 0 1 96-96z m0 128a32 32 0 1 0-32-32 32 32 0 0 0 32 32z m320-64a96 96 0 1 1-96 96 96 96 0 0 1 96-96z m0 128a32 32 0 1 0-32-32 32 32 0 0 0 32 32z m-256 128a96 96 0 1 1-96 96 96 96 0 0 1 96-96z m0 128a32 32 0 1 0-32-32 32 32 0 0 0 32 32z" />
<glyph glyph-name="search-minus" unicode="&#xe101;" d="M608 512a32 32 0 0 1 0 64h-384a32 32 0 0 1 0-64z m407-521l-283 283a417 417 0 1 1-46-46l283-283a32 32 0 0 1 46 46z m-599 201a352 352 0 1 0 352 352 352 352 0 0 0-352-352z" />
<glyph glyph-name="search" unicode="&#xe022;" d="M1015-9l-283 283a417 417 0 1 1-46-46l283-283a32 32 0 0 1 46 46z m-599 201a352 352 0 1 0 352 352 352 352 0 0 0-352-352z" />
<glyph glyph-name="search-plus" unicode="&#xe100;" d="M608 576h-160v160a32 32 0 0 1-64 0v-160h-160a32 32 0 0 1 0-64h160v-160a32 32 0 0 1 64 0v160h160a32 32 0 0 1 0 64z m407-585l-283 283a417 417 0 1 1-46-46l283-283a32 32 0 0 1 46 46z m-599 201a352 352 0 1 0 352 352 352 352 0 0 0-352-352z" />
<glyph glyph-name="select-cell" unicode="&#xe190;" d="M288 896h-192a32 32 0 0 1-32-32v-192a32 32 0 0 1 32-32h192a32 32 0 0 1 32 32v192a32 32 0 0 1-32 32z m320 0h-192a32 32 0 0 1-32-32v-192a32 32 0 0 1 32-32h192a32 32 0 0 1 32 32v192a32 32 0 0 1-32 32z m-32-192h-128v128h128z m352 192h-192a32 32 0 0 1-32-32v-192a32 32 0 0 1 32-32h192a32 32 0 0 1 32 32v192a32 32 0 0 1-32 32z m-32-192h-128v128h128z m-608-128h-192a32 32 0 0 1-32-32v-192a32 32 0 0 1 32-32h192a32 32 0 0 1 32 32v192a32 32 0 0 1-32 32z m-32-192h-128v128h128z m352 192h-192a32 32 0 0 1-32-32v-192a32 32 0 0 1 32-32h192a32 32 0 0 1 32 32v192a32 32 0 0 1-32 32z m-32-192h-128v128h128z m352 192h-192a32 32 0 0 1-32-32v-192a32 32 0 0 1 32-32h192a32 32 0 0 1 32 32v192a32 32 0 0 1-32 32z m-32-192h-128v128h128z m-608-128h-192a32 32 0 0 1-32-32v-192a32 32 0 0 1 32-32h192a32 32 0 0 1 32 32v192a32 32 0 0 1-32 32z m-32-192h-128v128h128z m352 192h-192a32 32 0 0 1-32-32v-192a32 32 0 0 1 32-32h192a32 32 0 0 1 32 32v192a32 32 0 0 1-32 32z m-32-192h-128v128h128z m352 192h-192a32 32 0 0 1-32-32v-192a32 32 0 0 1 32-32h192a32 32 0 0 1 32 32v192a32 32 0 0 1-32 32z m-32-192h-128v128h128z" />
<glyph glyph-name="select-list" unicode="&#xe146;" d="M1024 256v384a128 128 0 0 1-128 128h-864a32 32 0 0 1 0-64h288v-512h-288a32 32 0 0 1 0-64h864a128 128 0 0 1 128 128z m-64 0a64 64 0 0 0-64-64h-512v512h512a64 64 0 0 0 64-64z m-265 105a32 32 0 0 0-46 0l-128 128a32 32 0 0 0 46 46l105-106 105 106a32 32 0 0 0 46-46z" />
<glyph glyph-name="select-column" unicode="&#xe191;" d="M416 0h192a32 32 0 0 1 32 32v832a32 32 0 0 1-32 32h-192a32 32 0 0 1-32-32v-832a32 32 0 0 1 32-32z m-320 0h192a32 32 0 0 1 32 32v832a32 32 0 0 1-32 32h-192a32 32 0 0 1-32-32v-832a32 32 0 0 1 32-32z m32 832h128v-768h-128z m800 64h-192a32 32 0 0 1-32-32v-832a32 32 0 0 1 32-32h192a32 32 0 0 1 32 32v832a32 32 0 0 1-32 32z m-32-832h-128v768h128z" />
<glyph glyph-name="select-row" unicode="&#xe192;" d="M64 544v-192a32 32 0 0 1 32-32h832a32 32 0 0 1 32 32v192a32 32 0 0 1-32 32h-832a32 32 0 0 1-32-32z m0 320v-192a32 32 0 0 1 32-32h832a32 32 0 0 1 32 32v192a32 32 0 0 1-32 32h-832a32 32 0 0 1-32-32z m832-32v-128h-768v128z m64-800v192a32 32 0 0 1-32 32h-832a32 32 0 0 1-32-32v-192a32 32 0 0 1 32-32h832a32 32 0 0 1 32 32z m-832 32v128h768v-128z" />
<glyph glyph-name="selection" unicode="&#xe057;" d="M128 832h192v64h-192c-35 0-64-29-64-64v-192h64z m768 64h-192v-64h192v-192h64v192c0 35-29 64-64 64z m0-832h-128v-64h128c35 0 64 29 64 64v192h-64z m-768 192h-64v-192c0-35 29-64 64-64h128v64h-128z m256 640h256v-64h-256z m512-320h64v-256h-64z m-832 0h64v-256h-64z m311 119c-6 6-14 9-23 9-18 0-32-14-32-32v0 0-448 0c0-18 14-32 32-32 9 0 16 3 22 9l0 0 100 96 89-213c4-12 16-20 29-20h0 0c5 0 9 1 13 3l-1 0c12 5 20 16 20 29 0 4-1 9-3 13l1-1-89 212h139 0c18 0 32 14 32 32 0 9-3 17-9 23l0 0z m110-311c0 0 0 0 0 0-8 0-16-3-22-9l0 0-79-76v296l211-211z" />
<glyph glyph-name="shapes" unicode="&#xe048;" d="M224 384a224 224 0 1 1 224-224 224 224 0 0 1-224 224z m0-384a160 160 0 1 0 160 160 160 160 0 0 0-160-160z m768 384h-384a32 32 0 0 1-32-32v-384a32 32 0 0 1 32-32h384a32 32 0 0 1 32 32v384a32 32 0 0 1-32 32z m-32-384h-320v320h320z m-704 448h512a32 32 0 0 1 28 48l-256 448a33 33 0 0 1-56 0l-256-448a32 32 0 0 1 28-48z m256 416l201-352h-402z" />
<glyph glyph-name="shuttle" unicode="&#xe147;" d="M439 631a32 32 0 0 1-46 0l-160-160a32 32 0 0 1 0-46l160-160a32 32 0 1 1 46 46l-138 137 138 137a32 32 0 0 1 0 46z m521 265h-256a64 64 0 0 1-64-64v-32a32 32 0 0 1 64 0v32h256v-768h-256v32a32 32 0 0 1-64 0v-32a64 64 0 0 1 64-64h256a64 64 0 0 1 64 64v768a64 64 0 0 1-64 64z m-608-768a32 32 0 0 1-32-32v-32h-256v768h256v-32a32 32 0 0 1 64 0v32a64 64 0 0 1-64 64h-256a64 64 0 0 1-64-64v-768a64 64 0 0 1 64-64h256a64 64 0 0 1 64 64v32a32 32 0 0 1-32 32z m439 343l-160 160a32 32 0 0 1-46-46l138-137-138-137a32 32 0 0 1 46-46l160 160a32 32 0 0 1 0 46z" />
<glyph glyph-name="smile" unicode="&#xe1aa;" d="M384 576c0-35-29-64-64-64s-64 29-64 64 29 64 64 64 64-29 64-64z m384 0c0-35-29-64-64-64s-64 29-64 64 29 64 64 64 64-29 64-64z m-256 384c-283 0-512-229-512-512s229-512 512-512 512 229 512 512c0 283-229 512-512 512z m0-960c-247 0-448 201-448 448s201 448 448 448 448-201 448-448c0-247-201-448-448-448z m0 192c-1 0-1 0-2 0-88 0-167 43-215 109l-1 0c-4 6-6 12-6 19 0 18 14 32 32 32 11 0 20-5 26-13l0 0c38-51 98-83 166-83s128 32 166 82l0 1c6 8 15 13 26 13 18 0 32-14 32-32 0-7-2-13-6-19l0 0c-49-66-127-109-216-109 0 0-1 0-2 0l0 0z" />
<glyph glyph-name="sliders" unicode="&#xe148;" d="M32 640h160v-64a128 128 0 0 1 256 0v64h544a32 32 0 0 1 0 64h-544v64a128 128 0 0 1-256 0v-64h-160a32 32 0 0 1 0-64z m224 128a64 64 0 0 0 128 0v-192a64 64 0 0 0-128 0z m736-512h-160v64a128 128 0 0 1-256 0v-64h-544a32 32 0 0 1 0-64h544v-64a128 128 0 0 1 256 0v64h160a32 32 0 0 1 0 64z m-224-128a64 64 0 0 0-128 0v192a64 64 0 0 0 128 0z" />
<glyph glyph-name="snowflake" unicode="&#xe0db;" d="M950 369l-124-33a95 95 0 0 0-72 9l-178 103 178 102a95 95 0 0 0 73 10l123-33a31 31 0 0 1 9-1 32 32 0 0 1 7 63l-123 33a160 160 0 0 1-22 4 156 156 0 0 1 7 22l33 123a32 32 0 1 1-62 17l-33-124a97 97 0 0 0-45-58l-177-103v212a95 95 0 0 0 28 68l91 90a32 32 0 0 1-46 46l-90-91a156 156 0 0 1-15-17 156 156 0 0 1-15 17l-90 91a32 32 0 1 1-46-46l91-90a96 96 0 0 0 28-68v-212l-178 103a97 97 0 0 0-44 58l-34 124a32 32 0 1 1-61-17l33-123a149 149 0 0 1 7-22 150 150 0 0 1-22-4l-124-33a32 32 0 0 1 9-63 31 31 0 0 1 8 1l123 33a95 95 0 0 0 73-9l178-103-178-102a96 96 0 0 0-73-10l-123 33a32 32 0 0 1-16-62l123-33a160 160 0 0 1 23-4 156 156 0 0 1-8-22l-33-123a32 32 0 0 1 23-39 31 31 0 0 1 8-2 32 32 0 0 1 31 24l33 124a97 97 0 0 0 45 58l177 103v-212a95 95 0 0 0-28-68l-91-90a32 32 0 1 1 46-46l90 91a156 156 0 0 1 15 17 156 156 0 0 1 15-17l90-91a32 32 0 1 1 46 46l-91 90a96 96 0 0 0-28 68v211l178-102a96 96 0 0 0 44-58l34-124a32 32 0 0 1 30-24 31 31 0 0 1 9 1 32 32 0 0 1 22 39l-33 124a156 156 0 0 1-7 21 160 160 0 0 1 22 5l124 33a32 32 0 1 1-17 62z" />
<glyph glyph-name="sort-amount-asc" unicode="&#xe0f2;" d="M992 256h-384a32 32 0 0 1 0-64h384a32 32 0 0 1 0 64z m-384 128h256a32 32 0 0 1 0 64h-256a32 32 0 0 1 0-64z m0 192h128a32 32 0 0 1 0 64h-128a32 32 0 0 1 0-64z m-361 311a32 32 0 0 1-46 0l-192-192a32 32 0 0 1 46-46l137 138v-755a32 32 0 0 1 64 0v755l137-138a32 32 0 0 1 46 46z" />
<glyph glyph-name="sort" unicode="&#xe125;" d="M224 576h576a32 32 0 0 1 24 53l-288 320a33 33 0 0 1-48 0l-288-320a32 32 0 0 1 24-53z m288 304l216-240h-432z m288-560h-576a32 32 0 0 1-24-53l288-320a32 32 0 0 1 48 0l288 320a32 32 0 0 1-24 53z m-288-304l-216 240h432z" />
<glyph glyph-name="sort-amount-desc" unicode="&#xe0f3;" d="M992 640h-384a32 32 0 0 0 0 64h384a32 32 0 0 0 0-64z m-384-128h256a32 32 0 0 0 0-64h-256a32 32 0 0 0 0 64z m0-192h128a32 32 0 0 0 0-64h-128a32 32 0 0 0 0 64z m-361-311a32 32 0 0 0-46 0l-192 192a32 32 0 0 0 46 46l137-138v755a32 32 0 0 0 64 0v-755l137 138a32 32 0 0 0 46-46z" />
<glyph glyph-name="star" unicode="&#xe0f8;" d="M1023 567a32 32 0 0 1-31 22h-343l-106 327a33 33 0 0 1-61 0l-107-327h-343a32 32 0 0 1-19-58l278-202-106-326a32 32 0 0 1 49-36l278 202 278-202a32 32 0 0 1 49 36l-106 326 278 202a32 32 0 0 1 12 36z m-346-200a32 32 0 0 1-12-35l83-256-217 158a32 32 0 0 1-37 0l-217-158 83 256a32 32 0 0 1-12 35l-217 158h268a32 32 0 0 1 30 22l83 255 83-255a32 32 0 0 1 31-22h268z" />
<glyph glyph-name="sticky-note" unicode="&#xe0fe;" d="M896 896h-768a64 64 0 0 1-64-64v-768a64 64 0 0 1 64-64h512a32 32 0 0 1 23 9l288 288a32 32 0 0 1 9 23v512a64 64 0 0 1-64 64z m-256-819v243h243z m256 307h-256a64 64 0 0 1-64-64v-256h-448v768h768z" />
<glyph glyph-name="strikethrough" unicode="&#xe911;" d="M695 384h-117c73-36 126-79 126-162a178 178 0 0 0-192-158 178 178 0 0 0-192 160 32 32 0 0 1-64 0 242 242 0 0 1 256-224 241 241 0 0 1 256 222 204 204 0 0 1-73 162z m233 128h-482c-73 36-126 79-126 162a178 178 0 0 0 192 158 178 178 0 0 0 192-160 32 32 0 0 1 64 0 242 242 0 0 1-256 224 241 241 0 0 1-256-222 204 204 0 0 1 73-162h-233a32 32 0 0 1 0-64h832a32 32 0 0 1 0 64z" />
<glyph glyph-name="stock-chart" unicode="&#xe179;" d="M416 704h-160v160a32 32 0 0 1-64 0v-160h-160a32 32 0 0 1-32-32v-448a32 32 0 0 1 32-32h160v-160a32 32 0 0 1 64 0v160h160a32 32 0 0 1 32 32v448a32 32 0 0 1-32 32z m-32-448h-320v384h320z m608 320h-160v288a32 32 0 0 1-64 0v-288h-160a32 32 0 0 1-32-32v-192a32 32 0 0 1 32-32h160v-288a32 32 0 0 1 64 0v288h160a32 32 0 0 1 32 32v192a32 32 0 0 1-32 32z m-32-192h-320v128h320z" />
<glyph glyph-name="table" unicode="&#xe0f1;" d="M960 832h-896a64 64 0 0 1-64-64v-640a64 64 0 0 1 64-64h896a64 64 0 0 1 64 64v640a64 64 0 0 1-64 64z m-768-704h-128v128h128z m0 192h-128v128h128z m0 192h-128v128h128z m384-384h-320v128h320z m0 192h-320v128h320z m0 192h-320v128h320z m384-384h-320v128h320z m0 192h-320v128h320z m0 192h-320v128h320z m0 192h-896v64h896z" />
<glyph glyph-name="table-arrow-down" unicode="&#xe0d5;" d="M905 183l-137-138v307a32 32 0 0 1-64 0v-307l-137 138a32 32 0 0 1-46-46l192-192a32 32 0 0 1 46 0l192 192a32 32 0 0 1-46 46z m87 713h-960a32 32 0 0 1-32-32v-704a32 32 0 0 1 32-32h320a32 32 0 0 1 32 32v352h608a32 32 0 0 1 32 32v320a32 32 0 0 1-32 32z m-672-704h-256v128h256z m0 192h-256v128h256z m0 192h-256v128h256z m320 0h-256v128h256z m320 0h-256v128h256z m0 192h-896v64h896z" />
<glyph glyph-name="table-filter" unicode="&#xe903;" d="M992 960h-960a32 32 0 0 1-32-32v-704a32 32 0 0 1 32-32h320a32 32 0 0 1 32 32v352h608a32 32 0 0 1 32 32v320a32 32 0 0 1-32 32z m-672-704h-256v128h256z m0 192h-256v128h256z m0 192h-256v128h256z m320 0h-256v128h256z m320 0h-256v128h256z m0 192h-896v64h896z m32-320h-512a32 32 0 0 1-26-51l186-248v-245a32 32 0 0 1 46-29l128 64a32 32 0 0 1 18 29v181l186 248a32 32 0 0 1-26 51z m-218-269a32 32 0 0 1-6-19v-172l-64-32v204a32 32 0 0 1-6 19l-154 205h384z" />
<glyph glyph-name="template" unicode="&#xe0cf;" d="M960 832h-896a64 64 0 0 1-64-64v-704a64 64 0 0 1 64-64h896a64 64 0 0 1 64 64v704a64 64 0 0 1-64 64z m-896-768v704h896v-704z m800 640h-704a32 32 0 0 1-32-32v-128a32 32 0 0 1 32-32h704a32 32 0 0 1 32 32v128a32 32 0 0 1-32 32z m-32-128h-640v64h640z m-480-128h-192a32 32 0 0 1-32-32v-256a32 32 0 0 1 32-32h192a32 32 0 0 1 32 32v256a32 32 0 0 1-32 32z m-32-256h-128v192h128z m544 256h-384a32 32 0 0 1-32-32v-256a32 32 0 0 1 32-32h384a32 32 0 0 1 32 32v256a32 32 0 0 1-32 32z m-32-256h-320v192h320z" />
<glyph glyph-name="table-wrench" unicode="&#xe0cc;" d="M992 896h-960a32 32 0 0 1-32-32v-704a32 32 0 0 1 32-32h320a32 32 0 0 1 32 32v352h608a32 32 0 0 1 32 32v320a32 32 0 0 1-32 32z m-672-704h-256v128h256z m0 192h-256v128h256z m0 192h-256v128h256z m320 0h-256v128h256z m320 0h-256v128h256z m0 192h-896v64h896z m-19-438l-85-85c-9-9-14-9-17-5l-87 87a8 8 0 0 0 0 11l90 90a8 8 0 0 1-4 14 150 150 0 0 1-119-15 170 170 0 0 1-83-106 157 157 0 0 1-4-59 147 147 0 0 0-37-109l-130-130a52 52 0 0 1-5-70 49 49 0 0 1 72-3l133 133a147 147 0 0 0 110 37 156 156 0 0 1 58 4 170 170 0 0 1 106 83 150 150 0 0 1 15 119 8 8 0 0 1-13 4z" />
<glyph glyph-name="tabs" unicode="&#xe0ce;" d="M960 832h-896a64 64 0 0 1-64-64v-640a64 64 0 0 1 64-64h896a64 64 0 0 1 64 64v640a64 64 0 0 1-64 64z m-576-64h256v-128h-256z m576-640h-896v640h256v-192h640z m0 512h-256v128h256z" />
<glyph glyph-name="text-area" unicode="&#xe14a;" d="M896 896h-768a64 64 0 0 1-64-64v-768a64 64 0 0 1 64-64h768a64 64 0 0 1 64 64v768a64 64 0 0 1-64 64z m0-832h-768v768h768z m-608 384a32 32 0 0 1 32 32v192a32 32 0 0 1-64 0v-192a32 32 0 0 1 32-32z" />
<glyph glyph-name="text-field" unicode="&#xe149;" d="M404 604a55 55 0 0 1-103 0l-107-305a32 32 0 1 1 60-22l38 107h121l37-107a32 32 0 1 1 60 22z m-90-156l38 109 38-109z m358 256a32 32 0 0 1-32-32v-448a32 32 0 0 1 64 0v448a32 32 0 0 1-32 32z m288 128h-896a64 64 0 0 1-64-64v-640a64 64 0 0 1 64-64h896a64 64 0 0 1 64 64v640a64 64 0 0 1-64 64z m-896-704v640h896v-640z" />
<glyph glyph-name="thumb-tack" unicode="&#xe194;" d="M980 793l-123 123a149 149 0 0 1-227-20l-184-263a292 292 0 0 1-62 7 318 318 0 0 1-187-61 32 32 0 0 1-4-49l178-178-362-361a32 32 0 0 1 0-46 32 32 0 0 1 23-9 32 32 0 0 1 23 9l361 362 178-178a32 32 0 0 1 22-9l3 0a32 32 0 0 1 23 12 318 318 0 0 1 62 188 287 287 0 0 1-7 62l263 184a149 149 0 0 1 20 227z m-56-175l-282-196a32 32 0 0 1-13-35 242 242 0 0 0-19-184l-344 344a251 251 0 0 0 118 29 252 252 0 0 0 68-10 32 32 0 0 1 34 13l197 281a85 85 0 0 0 62 36 84 84 0 0 0 67-25l123-123a85 85 0 0 0-11-129z" />
<glyph glyph-name="tiles-2x2" unicode="&#xe0ff;" d="M416 896h-320a32 32 0 0 1-32-32v-320a32 32 0 0 1 32-32h320a32 32 0 0 1 32 32v320a32 32 0 0 1-32 32z m-32-320h-256v256h256z m544 320h-320a32 32 0 0 1-32-32v-320a32 32 0 0 1 32-32h320a32 32 0 0 1 32 32v320a32 32 0 0 1-32 32z m-32-320h-256v256h256z m-480-192h-320a32 32 0 0 1-32-32v-320a32 32 0 0 1 32-32h320a32 32 0 0 1 32 32v320a32 32 0 0 1-32 32z m-32-320h-256v256h256z m544 320h-320a32 32 0 0 1-32-32v-320a32 32 0 0 1 32-32h320a32 32 0 0 1 32 32v320a32 32 0 0 1-32 32z m-32-320h-256v256h256z" />
<glyph glyph-name="times" unicode="&#xe0a2;" d="M547 447l266 265a32 32 0 1 1-45 45l-266-265-265 265a32 32 0 0 1-45-45l265-265-266-266a32 32 0 0 1 46-45l265 265 265-265a32 32 0 0 1 46 45z" />
<glyph glyph-name="text-xyz" unicode="&#xe19e;" d="M308 633a32 32 0 0 1-45-5l-103-129-103 129a32 32 0 0 1-50-40l112-140-112-140a32 32 0 0 1 50-40l103 129 103-129a32 32 0 0 1 25-12 32 32 0 0 1 25 52l-112 140 112 140a32 32 0 0 1-5 45z m339-5l-103-129-103 129a32 32 0 0 1-50-40l121-151v-149a32 32 0 0 1 64 0v149l121 151a32 32 0 0 1-50 40z m345-308h-135l163 272a32 32 0 0 1-28 48h-192a32 32 0 0 1 0-64h136l-163-272a32 32 0 0 1 27-48h192a32 32 0 0 1 0 64z" />
<glyph glyph-name="times-circle_s" unicode="&#xe010;" d="M512 960a512 512 0 1 1 512-512 513 513 0 0 1-512 512z m136-693l-136 136-136-136a32 32 0 0 0-45 45l136 136-136 136a32 32 0 1 0 45 45l136-136 136 136a32 32 0 0 0 45-45l-136-136 136-136a32 32 0 0 0-45-45z" />
<glyph glyph-name="toggle-off" unicode="&#xe14b;" d="M320 256a192 192 0 1 1-192 192 192 192 0 0 1 192-192z m0 320a128 128 0 1 0-128-128 128 128 0 0 0 128 128z m0-448h384a320 320 0 0 1 0 640h-384a320 320 0 0 1 0-640z m0 576h384a256 256 0 0 0 0-512h-384a256 256 0 0 0 0 512z" />
<glyph glyph-name="tint" unicode="&#xe105;" d="M864 288a352 352 0 0 1-46 175l-278 481a32 32 0 0 1-56 0l-277-481a352 352 0 1 1 657-175z m-64 0a288 288 0 1 0-538 143l250 433 250-433a287 287 0 0 0 38-143z" />
<glyph glyph-name="toggles" unicode="&#xe0d3;" d="M288 640a96 96 0 1 1-96 96 96 96 0 0 1 96-96z m0 128a32 32 0 1 0-32-32 32 32 0 0 0 32 32z m0-256h448a224 224 0 0 1 0 448h-448a224 224 0 0 1 0-448z m0 384h448a160 160 0 0 0 0-320h-448a160 160 0 0 0 0 320z m448-640a96 96 0 1 1 96-96 96 96 0 0 1-96 96z m0-128a32 32 0 1 0 32 32 32 32 0 0 0-32-32z m0 256h-448a224 224 0 0 1 0-448h448a224 224 0 0 1 0 448z m0-384h-448a160 160 0 0 0 0 320h448a160 160 0 0 0 0-320z" />
<glyph glyph-name="trash" unicode="&#xe0c8;" d="M928 832h-224v96a32 32 0 0 1-32 32h-320a32 32 0 0 1-32-32v-96h-224a32 32 0 0 1 0-64h66l62-802a32 32 0 0 1 32-30h512a32 32 0 0 1 32 30l62 802h66a32 32 0 0 1 0 64z m-544 64h256v-64h-256z m354-896h-452l-59 768h570z m-322 64a32 32 0 0 1 32 32v512a32 32 0 0 1-64 0v-512a32 32 0 0 1 32-32z m192 0a32 32 0 0 1 32 32v512a32 32 0 0 1-64 0v-512a32 32 0 0 1 32-32z" />
<glyph glyph-name="tree-breadcrumb" unicode="&#xe0c4;" d="M439 663a32 32 0 0 1-46-46l170-169-170-169a32 32 0 0 1 46-46l192 192a32 32 0 0 1 0 46z m-311-87a128 128 0 1 1 128-128 128 128 0 0 1-128 128z m0-192a64 64 0 1 0 64 64 64 64 0 0 0-64-64z m768 192a128 128 0 1 1 128-128 128 128 0 0 1-128 128z m0-192a64 64 0 1 0 64 64 64 64 0 0 0-64-64z" />
<glyph glyph-name="tree-org" unicode="&#xe12c;" d="M704 320h192a64 64 0 0 1 64 64v192a64 64 0 0 1-64 64h-192a64 64 0 0 1-64-64v-64h-384v128h64a64 64 0 0 1 64 64v192a64 64 0 0 1-64 64h-192a64 64 0 0 1-64-64v-192a64 64 0 0 1 64-64h64v-512a64 64 0 0 1 64-64h384v-64a64 64 0 0 1 64-64h192a64 64 0 0 1 64 64v192a64 64 0 0 1-64 64h-192a64 64 0 0 1-64-64v-64h-384v320h384v-64a64 64 0 0 1 64-64z m0 256h192v-192h-192z m-576 320h192v-192h-192z m576-704h192v-192h-192z" />
<glyph glyph-name="undo" unicode="&#xe01b;" d="M512 960a463 463 0 0 1-385-199v167a32 32 0 0 1-64 0v-256a32 32 0 0 1 32-32h256a32 32 0 0 1 0 64h-185a405 405 0 0 0 346 192 448 448 0 1 0-388-670 32 32 0 1 1-56-32 512 512 0 1 1 444 766z" />
<glyph glyph-name="unlock" unicode="&#xe02f;" d="M896 576h-448v160a224 224 0 0 1-448 0v-128a32 32 0 0 1 64 0v128a160 160 0 0 0 320 0v-160a128 128 0 0 1-128-128v-384a128 128 0 0 1 128-128h512a128 128 0 0 1 128 128v384a128 128 0 0 1-128 128z m64-512a64 64 0 0 0-64-64h-512a64 64 0 0 0-64 64v384a64 64 0 0 0 64 64h512a64 64 0 0 0 64-64z m-320 256a32 32 0 0 1-32-32v-64a32 32 0 0 1 64 0v64a32 32 0 0 1-32 32z" />
<glyph glyph-name="undo-alt" unicode="&#xe14d;" d="M160 896h704a96 96 0 0 0 96-96v-192a32 32 0 0 0-64 0v192a32 32 0 0 1-32 32h-704a32 32 0 0 1-32-32v-704a32 32 0 0 1 32-32h544a192 192 0 0 1 192 202 201 201 0 0 1-205 182h-326l138-137a32 32 0 0 0 0-46 32 32 0 0 0-23-9 32 32 0 0 0-23 9l-192 192a32 32 0 0 0 0 46l192 192a32 32 0 0 0 46-46l-138-137h327a266 266 0 0 0 268-242 256 256 0 0 0-256-270h-544a96 96 0 0 0-96 96v704a96 96 0 0 0 96 96z" />
<glyph glyph-name="upload" unicode="&#xe1a6;" d="M992 256a32 32 0 0 1-32-32v-160a64 64 0 0 0-64-64h-768a64 64 0 0 0-64 64v160a32 32 0 0 1-64 0v-160a128 128 0 0 1 128-128h768a128 128 0 0 1 128 128v160a32 32 0 0 1-32 32z m-503 695a32 32 0 0 0 46 0l256-256a32 32 0 0 0-46-46l-201 202v-563a32 32 0 0 0-64 0v563l-201-202a32 32 0 0 0-46 46z" />
<glyph glyph-name="user-check" unicode="&#xe0d2;" d="M896 512h-320c-70 0-128-58-128-128v-320c0-70 58-128 128-128h320c70 0 128 58 128 128v320c0 70-58 128-128 128z m64-448c0-38-26-64-64-64h-320c-38 0-64 26-64 64v320c0 38 26 64 64 64h320c38 0 64-26 64-64v-320z m-122 282l-166-167-38 39c-13 12-32 12-45 0s-13-32 0-45l64-64c6-7 13-7 25-7s20 0 26 7l192 192c13 13 13 32 0 45s-45 6-58 0z m-582 326c0 122 83 224 192 224s192-102 192-224c0-32-6-64-19-96h70c7 32 13 64 13 96 0 160-115 288-256 288s-256-128-256-288c0-96 38-173 102-230l-6-20c-6-19-13-32-32-38l-186-77c-44-19-70-57-70-109v-102c0-19 13-32 32-32h352v64h-320v70c0 20 13 39 32 45l186 77c32 13 57 45 64 77l0 0c12 6 25 0 38 0 0 19 6 45 13 64-83 19-141 109-141 211z" />
<glyph glyph-name="user-wrench" unicode="&#xe059;" d="M422 70l58 58h-416v70c0 20 13 39 32 45l186 77c32 13 57 45 64 77l0 0c32-7 70-13 102-13s70 6 96 19l0 0c6-32 32-64 64-77l26-6c0 26 0 45 0 70-13 7-20 20-26 32l-6 20c64 57 102 134 102 230 0 160-115 288-256 288s-256-128-256-288c0-96 38-173 102-230l-6-20c-6-19-13-32-32-38l-186-77c-44-19-70-57-70-109v-102c0-19 13-32 32-32l390 6c-6-6-6-6 0 0z m-166 602c0 122 83 224 192 224s192-102 192-224-83-224-192-224-192 102-192 224z m749-275l-83-83c-7-7-13-7-20-7l-89 90c0 0 0 6 0 13l89 89c7 7 0 13-6 13-38 13-77 13-122-13-38-25-70-57-83-109-6-19-6-38 0-57 7-32-13-83-38-109-58-58-154-154-192-192-19-19-19-51-7-70 13-20 32-26 45-26 13 0 26 6 32 13l199 198c25 26 76 45 108 39 20 0 39 0 58 0 45 12 83 44 109 83 25 45 25 83 13 121 0 7-7 7-13 7z" />
<glyph glyph-name="user" unicode="&#xe024;" d="M947 205l-217 89c-20 7-32 26-39 45l-13 45c71 58 122 154 122 256 0 179-128 320-288 320s-288-141-288-320c0-109 45-198 122-256l-13-45c-7-19-19-38-39-45l-217-89c-45-19-77-64-77-115v-122c0-19 13-32 32-32h960c19 0 32 13 32 32v122c0 51-32 96-77 115z m-659 435c0 141 102 256 224 256s224-115 224-256-102-256-224-256-224 115-224 256z m672-640h-896v90c0 25 13 51 38 57l218 90c38 13 64 51 77 89l6 20c32-20 71-26 109-26s77 6 115 26l7-20c12-38 38-70 76-89l218-90c26-13 38-32 38-57v-90z" />
<glyph glyph-name="users" unicode="&#xe19d;" d="M960 410l-160 70c-13 6-19 13-19 26l0 6c51 38 83 109 83 192 0 141-102 256-224 256s-224-115-224-256c0 0 0 0 0-6l0 0c-13 6-19 6-32 6-122 0-224-115-224-256 0-83 32-154 83-198l0-7c0-13-13-19-19-25l-160-64c-38-20-64-52-64-96v-90c0-19 13-32 32-32h704c19 0 32 13 32 32v90c0 38-26 76-64 96l-96 38h384c19 0 32 13 32 32v90c0 38-26 76-64 96z m-320 486c90 0 160-83 160-192s-70-192-160-192c-13 0-26 0-45 6-19 71-57 128-115 160 0 7 0 20 0 26 0 109 70 192 160 192z m-416-448c0 109 70 192 160 192s160-83 160-192-70-192-160-192-160 83-160 192z m454-358c13-7 26-20 26-39v-51h-640v58c0 12 6 32 26 38l160 70c25 13 44 26 51 52 25-20 51-26 83-26 32 0 58 6 83 19 13-25 32-45 51-51l160-70z m282 166h-429c45 45 77 115 77 192 0 0 0 0 0 6l0 0c13-6 19-6 32-6 32 0 58 6 83 19 13-25 32-45 51-51l160-70c13-7 26-20 26-39v-51z" />
<glyph glyph-name="window" unicode="&#xe00c;" d="M960 832h-896a64 64 0 0 1-64-64v-640a64 64 0 0 1 64-64h896a64 64 0 0 1 64 64v640a64 64 0 0 1-64 64z m0-64v-64h-896v64z m0-672v32h-896v512h896v-512h0z" />
<glyph glyph-name="x-axis" unicode="&#xe17a;" d="M333 198a32 32 0 0 1 45 7l134 188 134-188a32 32 0 1 1 52 38l-147 205 147 205a32 32 0 1 1-52 38l-134-188-134 188a32 32 0 1 1-52-38l147-205-147-205a32 32 0 0 1 7-45z m595-70a32 32 0 0 1-32-32v-32h-768v32a32 32 0 0 1-64 0v-64a32 32 0 0 1 32-32h832a32 32 0 0 1 32 32v64a32 32 0 0 1-32 32z" />
<glyph glyph-name="wrench" unicode="&#xe0a3;" d="M1004 712a32 32 0 0 1-47 23l-184-109-63 106 181 105a32 32 0 0 1 3 53 269 269 0 0 1-99 46 280 280 0 0 1-345-272v-42a87 87 0 0 0-25-62l-366-366a141 141 0 0 1-30-161 143 143 0 0 1 105-80 138 138 0 0 1 23-1 142 142 0 0 1 100 41l337 337a190 190 0 0 0 134 55 279 279 0 0 1 276 327z m-111-187a214 214 0 0 0-163-76h-2a254 254 0 0 1-180-74l-336-337a77 77 0 1 0-107 111l365 366a150 150 0 0 1 44 107v42a215 215 0 0 0 216 216 227 227 0 0 0 51-6 200 200 0 0 0 30-10l-133-77a62 62 0 0 1-23-84l63-109a62 62 0 0 1 84-23l142 82a212 212 0 0 0-51-128z m-721-385a32 32 0 1 1 32-32 32 32 0 0 1-32 32z" />
<glyph glyph-name="y-axis" unicode="&#xe17d;" d="M691 698a32 32 0 0 1-45-7l-134-188-134 188a32 32 0 1 1-52-38l154-215v-214a32 32 0 0 1 64 0v214l154 215a32 32 0 0 1-7 45z m-531 134a32 32 0 0 1 0 64h-64a32 32 0 0 1-32-32v-832a32 32 0 0 1 32-32h64a32 32 0 0 1 0 64h-32v768z" />
<glyph glyph-name="y1-axis" unicode="&#xe17b;" d="M646 691l-134-188-134 188a32 32 0 1 1-52-38l154-215v-214a32 32 0 0 1 64 0v214l154 215a32 32 0 1 1-52 38z m-486 141a32 32 0 0 1 0 64h-64a32 32 0 0 1-32-32v-832a32 32 0 0 1 32-32h64a32 32 0 0 1 0 64h-32v768z m720-452a32 32 0 0 1-33-1l-97-64a32 32 0 1 1 36-54l47 32v-264a32 32 0 0 1 64 0v323a32 32 0 0 1-17 28z" />
<glyph glyph-name="action" unicode="&#xe033;" d="M800 768h-123a32 32 0 0 0-23 11l-130 144a17 17 0 0 1-24 0l-130-144a32 32 0 0 0-23-11h-123a64 64 0 0 1-64-64v-576a64 64 0 0 1 64-64h576a64 64 0 0 1 64 64v576a64 64 0 0 1-64 64z m32-640a32 32 0 0 0-32-32h-576a32 32 0 0 0-32 32v576a32 32 0 0 0 32 32h123a64 64 0 0 1 47 21l118 131 118-131a64 64 0 0 1 47-21h123a32 32 0 0 0 32-32z m-144 448h-352a16 16 0 0 1 0-32h352a16 16 0 0 1 0 32z m0-160h-352a16 16 0 0 1 0-32h352a16 16 0 0 1 0 32z m0-160h-352a16 16 0 0 1 0-32h352a16 16 0 0 1 0 32z" />
<glyph glyph-name="y2-axis" unicode="&#xe17c;" d="M646 691l-134-188-134 188a32 32 0 1 1-52-38l154-215v-214a32 32 0 0 1 64 0v214l154 215a32 32 0 1 1-52 38z m-486 141a32 32 0 0 1 0 64h-64a32 32 0 0 1-32-32v-832a32 32 0 0 1 32-32h64a32 32 0 0 1 0 64h-32v768z m768-768h-150a224 224 0 0 0 70 52c50 29 112 66 112 140a128 128 0 0 1-256 0 32 32 0 0 1 64 0 64 64 0 0 0 128 0c0-36-30-55-80-84s-112-66-112-140a32 32 0 0 1 32-32h192a32 32 0 0 1 0 64z" />
<glyph glyph-name="activity" unicode="&#xe10e;" d="M864 832h-704a96 96 0 0 1-96-96v-576a96 96 0 0 1 96-96h704a96 96 0 0 1 96 96v576a96 96 0 0 1-96 96z m-704-32h704a64 64 0 0 0 64-64v-160h-112a16 16 0 0 1-14-9l-162-324-242 453a16 16 0 0 1-14 8h0a16 16 0 0 1-14-9l-172-343h-102v384a64 64 0 0 0 64 64z m704-704h-704a64 64 0 0 0-64 64v160h112a16 16 0 0 1 14 9l163 324 241-452a16 16 0 0 1 14-9h0a16 16 0 0 1 14 9l172 343h102v-384a64 64 0 0 0-64-64z" />
<glyph glyph-name="apps-download" unicode="&#xe097;" d="M832 400a16 16 0 0 1-32 0v-281l-133 132a16 16 0 0 1-22-22l160-160a17 17 0 0 1 5-4 16 16 0 0 1 12 0 17 17 0 0 1 5 4l160 160a16 16 0 0 1-22 22l-133-132z m-336-336h-144a32 32 0 0 0-32 32v544a32 32 0 0 0 32 32h544a32 32 0 0 0 32-32v-144a16 16 0 0 1 32 0v144a64 64 0 0 1-64 64h-160v128a64 64 0 0 1-64 64h-544a64 64 0 0 1-64-64v-544a64 64 0 0 1 64-64h160v-128a64 64 0 0 1 64-64h144a16 16 0 0 1 0 32z m-368 192a32 32 0 0 0-32 32v544a32 32 0 0 0 32 32h544a32 32 0 0 0 32-32v-128h-352a64 64 0 0 1-64-64v-384z m848-288h-320a16 16 0 0 1 0-32h320a16 16 0 0 1 0 32z" />
<glyph glyph-name="area-chart-alt" unicode="&#xe053;" d="M951 702l-128 64a16 16 0 0 1-20-4l-184-246-244 122a16 16 0 0 1-18-2l-261-248v428a16 16 0 0 1-32 0v-736a16 16 0 0 1 16-16h864a16 16 0 0 1 16 16v608a16 16 0 0 1-9 14z m-23-606h-724l169 282 243-152a16 16 0 0 1 16 0l296 178z m0 345l-304-182-248 155a16 16 0 0 1-22-6l-187-312h-71v248l275 261 246-123a16 16 0 0 1 20 4l184 246 107-54z" />
<glyph glyph-name="archive" unicode="&#xe003;" d="M864 832h-704a64 64 0 0 1-64-64v-144a16 16 0 0 1 16-16h48v-480a64 64 0 0 1 64-64h576a64 64 0 0 1 64 64v480h48a16 16 0 0 1 16 16v144a64 64 0 0 1-64 64z m-32-704a32 32 0 0 0-32-32h-576a32 32 0 0 0-32 32v480h640z m64 512h-768v128a32 32 0 0 0 32 32h704a32 32 0 0 0 32-32z m-496-192h224a16 16 0 0 1 0 32h-224a16 16 0 0 1 0-32z" />
<glyph glyph-name="arrow-circle-down" unicode="&#xe0ba;" d="M677 427l-149-148v377a16 16 0 0 1-32 0v-377l-149 148a16 16 0 0 1-22-22l176-176a16 16 0 0 1 22 0l176 176a16 16 0 0 1-22 22z m-165 469a448 448 0 1 1 448-448 449 449 0 0 1-448 448z m0-864a416 416 0 1 0 416 416 417 417 0 0 0-416-416z" />
<glyph glyph-name="bar-chart" unicode="&#xe159;" d="M944 32h-48v384a32 32 0 0 1-32 32h-128a32 32 0 0 1-32-32v-384h-96v832a32 32 0 0 1-32 32h-128a32 32 0 0 1-32-32v-832h-96v576a32 32 0 0 1-32 32h-128a32 32 0 0 1-32-32v-576h-48a16 16 0 0 1 0-32h864a16 16 0 0 1 0 32z m-784 0v576h128v-576z m288 0v832h128v-832z m288 0v384h128v-384z" />
<glyph glyph-name="auto-complete" unicode="&#xe018;" d="M896 416a64 64 0 1 1-64 64 64 64 0 0 1 64-64z m0 96a32 32 0 1 0-32-32 32 32 0 0 0 32 32z m-224-96a64 64 0 1 1-64 64 64 64 0 0 1 64-64z m0 96a32 32 0 1 0-32-32 32 32 0 0 0 32 32z m-314 278a16 16 0 0 1-15 10 16 16 0 0 1-15-10l-263-672a16 16 0 1 1 30-12l96 246h295l91-246a16 16 0 0 1 15-10 16 16 0 0 1 6 1 16 16 0 0 1 9 21z m-154-406l138 355 132-355z" />
<glyph glyph-name="bar-chart-horizontal" unicode="&#xe164;" d="M928 544h-832v96h576a32 32 0 0 1 32 32v128a32 32 0 0 1-32 32h-576v48a16 16 0 0 1-32 0v-864a16 16 0 0 1 32 0v48h384a32 32 0 0 1 32 32v128a32 32 0 0 1-32 32h-384v96h832a32 32 0 0 1 32 32v128a32 32 0 0 1-32 32z m-832 256h576v-128h-576z m384-576v-128h-384v128z m-384 160v128h832v-128z" />
<glyph glyph-name="arrow-circle-up" unicode="&#xe0b8;" d="M523 667a17 17 0 0 1-5 4 16 16 0 0 1-12 0 17 17 0 0 1-5-4l-176-176a16 16 0 0 1 22-22l149 148v-377a16 16 0 0 1 32 0v377l149-148a16 16 0 0 1 22 22z m-11 229a448 448 0 1 1 448-448 449 449 0 0 1-448 448z m0-864a416 416 0 1 0 416 416 417 417 0 0 0-416-416z" />
<glyph glyph-name="book" unicode="&#xe0be;" d="M950 864a368 368 0 0 1-150 32 379 379 0 0 1-288-135 379 379 0 0 1-288 135 368 368 0 0 1-150-32 16 16 0 0 1-10-15v-719a16 16 0 0 1 22-15 336 336 0 0 0 138 30 349 349 0 0 0 275-139 16 16 0 0 1 26 0 349 349 0 0 0 275 139 336 336 0 0 0 138-30 16 16 0 0 1 22 15v719a16 16 0 0 1-10 15z m-726-687a367 367 0 0 1-128-23v685a335 335 0 0 0 128 25 348 348 0 0 0 272-134v-672a377 377 0 0 1-272 119z m704-23a367 367 0 0 1-128 23 377 377 0 0 1-272-119v672a348 348 0 0 0 272 134 335 335 0 0 0 128-25z m-332 451a16 16 0 0 1 14-7 16 16 0 0 1 8 2 337 337 0 0 0 213 53 16 16 0 1 1 3 31 368 368 0 0 1-233-57 16 16 0 0 1-5-22z m238-69a368 368 0 0 1-233-57 16 16 0 0 1 17-27 335 335 0 0 0 213 52 16 16 0 1 1 3 32z m0-148a367 367 0 0 1-233-57 16 16 0 0 1 9-29 16 16 0 0 1 8 2 336 336 0 0 0 213 52 16 16 0 1 1 3 32z" />
</font>
</defs>
</svg>
